GrabHD

Untitled

Feb 25th, 2020
107
Never
Not a member of Pastebin yet? Sign Up, it unlocks many cool features!
  1. General
  2. Уникальный идентификатор : 206511743875464079578530556685275722904 (0x9B5CB71365DC56B3A89D05C4B2397498)
  3. Полное имя : F:TorrentProshchatsyaNeBudem1080p.mkv
  4. Формат : Matroska
  5. Версия формата : Version 4 / Version 2
  6. Размер файла : 4.00 GiB
  7. Продолжительность : 1 h 55 min
  8. Общий поток : 4 961 kb/s
  9. Дата кодирования : UTC 2018-07-20 12:53:49
  10. Программа кодирования : mkvmerge v9.5.0 ('Quiet Fire') 64bit
  11. Библиотека кодирования : libebml v1.3.4 + libmatroska v1.4.5
  12.  
  13. Video
  14. Идентификатор : 1
  15. Формат : AVC
  16. Формат/Информация : Advanced Video Codec
  17. Профиль формата : High@L4
  18. Настройки формата : CABAC / 5 Ref Frames
  19. Параметр CABAC формата : Yes
  20. Параметр RefFrames формата : 5 frames
  21. Идентификатор кодека : V_MPEG4/ISO/AVC
  22. Продолжительность : 1 h 55 min
  23. Битрейт : 4 575 kb/s
  24. Ширина : 1 920 pixels
  25. Высота : 802 pixels
  26. Соотношение сторон : 2.40:1
  27. Режим частоты кадров : Constant
  28. Частота кадров : 24.000 FPS
  29. Цветовое пространство : YUV
  30. Субдискретизация насыщенности : 4:2:0
  31. Битовая глубина : 8 bits
  32. Тип развёртки : Progressive
  33. Бит/(Пиксели*Кадры) : 0.124
  34. Размер потока : 3.69 GiB (92%)
  35. Язык : English
  36. Default : Yes
  37. Forced : No
  38. Цветовой диапазон : Limited
  39. Основные цвета : BT.709
  40. Характеристики трансфера : BT.709
  41. Коэффициенты матрицы : BT.709
  42.  
  43. Audio
  44. Идентификатор : 2
  45. Формат : AC-3
  46. Формат/Информация : Audio Coding 3
  47. Идентификатор кодека : A_AC3
  48. Продолжительность : 1 h 55 min
  49. Вид битрейта : Constant
  50. Битрейт : 384 kb/s
  51. Каналы : 6 channels
  52. Расположение каналов : Front: L C R, Side: L R, LFE
  53. Частота : 48.0 kHz
  54. Частота кадров : 31.250 FPS (1536 SPF)
  55. Битовая глубина : 16 bits
  56. Метод сжатия : Lossy
  57. Размер потока : 317 MiB (8%)
  58. Язык : Russian
  59. Default : Yes
  60. Forced : No
  61.  
  62. Menu
  63. 00:00:00.000 : en:Глава 1
  64. 00:07:24.916 : en:Глава 2
  65. 00:14:18.624 : en:Глава 3
  66. 00:21:54.707 : en:Глава 4
  67. 00:29:41.582 : en:Глава 5
  68. 00:35:32.582 : en:Глава 6
  69. 00:40:23.748 : en:Глава 7
  70. 00:45:29.081 : en:Глава 8
  71. 00:52:01.497 : en:Глава 9
  72. 00:59:00.663 : en:Глава 10
  73. 01:07:20.538 : en:Глава 11
  74. 01:13:37.704 : en:Глава 12
  75. 01:18:24.079 : en:Глава 13
  76. 01:27:47.162 : en:Глава 14
  77. 01:35:29.120 : en:Глава 15
  78. 01:40:38.203 : en:Глава 16
  79. 01:47:06.786 : en:Глава 17
RAW Paste Data