iMN0

Dr.Death.S01E01.Diplos.1080p.PCOK.WEB-DL.DDP5.1.H.264-TOMMY.mkv

Jul 15th, 2021
258
Never
Not a member of Pastebin yet? Sign Up, it unlocks many cool features!
  1. General
  2. Unique ID : 49545144314290043273747988713536481123 (0x25460C364A0A98242CC7EF9A76DBE763)
  3. Complete name : Dr.Death.S01E01.Diplos.1080p.PCOK.WEB-DL.DDP5.1.H.264-TOMMY.mkv
  4. Format : Matroska
  5. Format version : Version 4
  6. File size : 2.31 GiB
  7. Duration : 44 min 47 s
  8. Overall bit rate : 7 375 kb/s
  9. Encoded date : UTC 2021-07-15 10:51:51
  10. Writing application : mkvmerge v53.0.0 ('Fool's Gold') 64-bit
  11. Writing library : libebml v1.4.1 + libmatroska v1.6.2
  12.  
  13. Video
  14. ID : 1
  15. Format : AVC
  16. Format/Info : Advanced Video Codec
  17. Format profile : High@L4
  18. Format settings : CABAC / 4 Ref Frames
  19. Format settings, CABAC : Yes
  20. Format settings, Reference frames : 4 frames
  21. Codec ID : V_MPEG4/ISO/AVC
  22. Duration : 44 min 47 s
  23. Bit rate : 7 180 kb/s
  24. Width : 1 920 pixels
  25. Height : 1 080 pixels
  26. Display aspect ratio : 16:9
  27. Frame rate mode : Constant
  28. Frame rate : 23.976 (24000/1001) FPS
  29. Color space : YUV
  30. Chroma subsampling : 4:2:0
  31. Bit depth : 8 bits
  32. Scan type : Progressive
  33. Bits/(Pixel*Frame) : 0.144
  34. Stream size : 2.25 GiB (97%)
  35. Default : Yes
  36. Forced : No
  37. Color range : Limited
  38. Color primaries : BT.709
  39. Transfer characteristics : BT.709
  40. Matrix coefficients : BT.709
  41.  
  42. Audio
  43. ID : 2
  44. Format : E-AC-3
  45. Format/Info : Enhanced AC-3
  46. Commercial name : Dolby Digital Plus
  47. Codec ID : A_EAC3
  48. Duration : 44 min 47 s
  49. Bit rate mode : Constant
  50. Bit rate : 192 kb/s
  51. Channel(s) : 6 channels
  52. Channel layout : L R C LFE Ls Rs
  53. Sampling rate : 48.0 kHz
  54. Frame rate : 31.250 FPS (1536 SPF)
  55. Compression mode : Lossy
  56. Stream size : 61.5 MiB (3%)
  57. Language : English
  58. Service kind : Complete Main
  59. Default : Yes
  60. Forced : No
  61.  
  62. Text #1
  63. ID : 3
  64. Format : UTF-8
  65. Codec ID : S_TEXT/UTF8
  66. Codec ID/Info : UTF-8 Plain Text
  67. Duration : 42 min 52 s
  68. Bit rate : 81 b/s
  69. Count of elements : 808
  70. Stream size : 25.5 KiB (0%)
  71. Language : English
  72. Default : No
  73. Forced : No
  74.  
  75. Text #2
  76. ID : 4
  77. Format : UTF-8
  78. Codec ID : S_TEXT/UTF8
  79. Codec ID/Info : UTF-8 Plain Text
  80. Duration : 42 min 57 s
  81. Bit rate : 82 b/s
  82. Count of elements : 810
  83. Stream size : 25.9 KiB (0%)
  84. Language : Spanish
  85. Default : No
  86. Forced : No
RAW Paste Data