Guest User

Untitled

a guest
Jun 10th, 2020
60
Never
Not a member of Pastebin yet? Sign Up, it unlocks many cool features!
  1. General
  2. Unique ID : 182975543889480550335777279390980354812 (0x89A7CED2F9B3EBECF422E5148639B2FC)
  3. Complete name : E:\Мои рипы\Русская невеста.2019.BDRemux.1080p.R.G. Goldenshara.mkv
  4. Format : Matroska
  5. Format version : Version 4
  6. File size : 18.7 GiB
  7. Duration : 1 h 41 min
  8. Overall bit rate mode : Variable
  9. Overall bit rate : 26.4 Mb/s
  10. Movie name : The Russian Bride
  11. Encoded date : UTC 2020-06-10 17:12:41
  12. Writing application : mkvmerge v46.0.0 ('No Deeper Escape') 64-bit
  13. Writing library : libebml v1.3.10 + libmatroska v1.5.2
  14. Cover : Yes
  15. Attachments : cover.jpg / cover.jpg
  16.  
  17. Video
  18. ID : 1
  19. ID in the original source m : 4113 (0x1011)
  20. Format : AVC
  21. Format/Info : Advanced Video Codec
  22. Format profile : High@L4.1
  23. Format settings : CABAC / 2 Ref Frames
  24. Format settings, CABAC : Yes
  25. Format settings, Reference : 2 frames
  26. Codec ID : V_MPEG4/ISO/AVC
  27. Duration : 1 h 41 min
  28. Bit rate mode : Variable
  29. Bit rate : 22.1 Mb/s
  30. Maximum bit rate : 30.2 Mb/s
  31. Width : 1 920 pixels
  32. Height : 1 080 pixels
  33. Display aspect ratio : 16:9
  34. Frame rate mode : Constant
  35. Frame rate : 23.976 (24000/1001) FPS
  36. Color space : YUV
  37. Chroma subsampling : 4:2:0
  38. Bit depth : 8 bits
  39. Scan type : Progressive
  40. Bits/(Pixel*Frame) : 0.444
  41. Stream size : 15.6 GiB (84%)
  42. Language : English
  43. Default : Yes
  44. Forced : No
  45. Original source medium : Blu-ray
  46.  
  47. Audio #1
  48. ID : 2
  49. Format : AC-3
  50. Format/Info : Audio Coding 3
  51. Commercial name : Dolby Digital
  52. Codec ID : A_AC3
  53. Duration : 1 h 41 min
  54. Bit rate mode : Constant
  55. Bit rate : 384 kb/s
  56. Channel(s) : 6 channels
  57. Channel layout : L R C LFE Ls Rs
  58. Sampling rate : 48.0 kHz
  59. Frame rate : 31.250 FPS (1536 SPF)
  60. Compression mode : Lossy
  61. Stream size : 278 MiB (1%)
  62. Title : MVO [iTunes]
  63. Language : Russian
  64. Service kind : Complete Main
  65. Default : Yes
  66. Forced : No
  67.  
  68. Audio #2
  69. ID : 3
  70. Format : AC-3
  71. Format/Info : Audio Coding 3
  72. Commercial name : Dolby Digital
  73. Codec ID : A_AC3
  74. Duration : 1 h 41 min
  75. Bit rate mode : Constant
  76. Bit rate : 192 kb/s
  77. Channel(s) : 2 channels
  78. Channel layout : L R
  79. Sampling rate : 48.0 kHz
  80. Frame rate : 31.250 FPS (1536 SPF)
  81. Compression mode : Lossy
  82. Stream size : 139 MiB (1%)
  83. Title : MVO [HDRezka Studio]
  84. Language : Russian
  85. Service kind : Complete Main
  86. Default : No
  87. Forced : No
  88.  
  89. Audio #3
  90. ID : 4
  91. Format : AC-3
  92. Format/Info : Audio Coding 3
  93. Commercial name : Dolby Digital
  94. Codec ID : A_AC3
  95. Duration : 1 h 41 min
  96. Bit rate mode : Constant
  97. Bit rate : 256 kb/s
  98. Channel(s) : 2 channels
  99. Channel layout : L R
  100. Sampling rate : 48.0 kHz
  101. Frame rate : 31.250 FPS (1536 SPF)
  102. Compression mode : Lossy
  103. Stream size : 186 MiB (1%)
  104. Title : VO [Хихикающий доктор]
  105. Language : Russian
  106. Service kind : Complete Main
  107. Default : No
  108. Forced : No
  109.  
  110. Audio #4
  111. ID : 5
  112. ID in the original source m : 4353 (0x1101)
  113. Format : DTS XLL
  114. Format/Info : Digital Theater Systems
  115. Commercial name : DTS-HD Master Audio
  116. Codec ID : A_DTS
  117. Duration : 1 h 41 min
  118. Bit rate mode : Variable
  119. Bit rate : 1 779 kb/s
  120. Channel(s) : 6 channels
  121. Channel layout : C L R Ls Rs LFE
  122. Sampling rate : 48.0 kHz
  123. Frame rate : 93.750 FPS (512 SPF)
  124. Bit depth : 16 bits
  125. Compression mode : Lossless
  126. Stream size : 1.26 GiB (7%)
  127. Language : English
  128. Default : No
  129. Forced : No
  130. Original source medium : Blu-ray
  131.  
  132. Audio #5
  133. ID : 6
  134. ID in the original source m : 4352 (0x1100)
  135. Format : DTS XLL
  136. Format/Info : Digital Theater Systems
  137. Commercial name : DTS-HD Master Audio
  138. Codec ID : A_DTS
  139. Duration : 1 h 41 min
  140. Bit rate mode : Variable
  141. Bit rate : 1 718 kb/s
  142. Channel(s) : 6 channels
  143. Channel layout : C L R Ls Rs LFE
  144. Sampling rate : 48.0 kHz
  145. Frame rate : 93.750 FPS (512 SPF)
  146. Bit depth : 16 bits
  147. Compression mode : Lossless
  148. Stream size : 1.22 GiB (7%)
  149. Language : German
  150. Default : No
  151. Forced : No
  152. Original source medium : Blu-ray
  153.  
  154. Text #1
  155. ID : 7
  156. Format : UTF-8
  157. Codec ID : S_TEXT/UTF8
  158. Codec ID/Info : UTF-8 Plain Text
  159. Duration : 1 h 33 min
  160. Bit rate : 35 b/s
  161. Count of elements : 994
  162. Stream size : 24.7 KiB (0%)
  163. Title : Full
  164. Language : English
  165. Default : No
  166. Forced : No
  167.  
  168. Text #2
  169. ID : 8
  170. Format : UTF-8
  171. Codec ID : S_TEXT/UTF8
  172. Codec ID/Info : UTF-8 Plain Text
  173. Duration : 1 h 37 min
  174. Bit rate : 45 b/s
  175. Count of elements : 1440
  176. Stream size : 32.1 KiB (0%)
  177. Title : SDH
  178. Language : English
  179. Default : No
  180. Forced : No
  181.  
  182. Menu
  183. 00:00:00.000 : en:Глава 01
  184. 00:08:37.975 : en:Глава 02
  185. 00:17:19.705 : en:Глава 03
  186. 00:25:35.659 : en:Глава 04
  187. 00:31:06.197 : en:Глава 05
  188. 00:42:10.236 : en:Глава 06
  189. 00:51:02.225 : en:Глава 07
  190. 01:00:34.797 : en:Глава 08
  191. 01:12:40.814 : en:Глава 09
  192. 01:20:34.955 : en:Глава 10
  193. 01:27:11.184 : en:Глава 11
  194. 01:37:04.235 : en:Глава 12
RAW Paste Data