SHARE
TWEET

Say.Anything.1989.1080p.BluRay.REMUX.AVC.DTS-HD.MA.5.1-TwT

a guest Jun 15th, 2019 77 Never
Not a member of Pastebin yet? Sign Up, it unlocks many cool features!
  1. General
  2. Complete name                            : Say.Anything.1989.1080p.BluRay.REMUX.AVC.DTS-HD.MA.5.1-TwT.mkv
  3. Format                                   : Matroska
  4. Format version                           : Version 4
  5. File size                                : 20.7 GiB
  6. Duration                                 : 1 h 40 min
  7. Overall bit rate mode                    : Variable
  8. Overall bit rate                         : 29.4 Mb/s
  9. Encoded date                             : UTC 2017-11-14 22:01:22
  10. Writing application                      : mkvmerge v17.0.0 ('Be Ur Friend') 64-bit
  11. Writing library                          : libebml v1.3.5 + libmatroska v1.4.8
  12.  
  13. Video
  14. ID                                       : 1
  15. Format                                   : AVC
  16. Format/Info                              : Advanced Video Codec
  17. Format profile                           : High@L4.1
  18. Format settings                          : CABAC / 2 Ref Frames
  19. Format settings, CABAC                   : Yes
  20. Format settings, Reference frames        : 2 frames
  21. Format settings, GOP                     : M=1, N=10
  22. Codec ID                                 : V_MPEG4/ISO/AVC
  23. Duration                                 : 1 h 40 min
  24. Bit rate mode                            : Variable
  25. Bit rate                                 : 26.6 Mb/s
  26. Width                                    : 1 920 pixels
  27. Height                                   : 1 080 pixels
  28. Display aspect ratio                     : 16:9
  29. Frame rate mode                          : Constant
  30. Frame rate                               : 23.976 (24000/1001) FPS
  31. Color space                              : YUV
  32. Chroma subsampling                       : 4:2:0
  33. Bit depth                                : 8 bits
  34. Scan type                                : Progressive
  35. Bits/(Pixel*Frame)                       : 0.535
  36. Stream size                              : 18.6 GiB (90%)
  37. Title                                    : MPEG-4 AVC Video / 26574 kbps / 1080p / 23.976 fps / 16:9 / High Profile 4.1
  38. Language                                 : English
  39. Default                                  : Yes
  40. Forced                                   : No
  41.  
  42. Audio #1
  43. ID                                       : 2
  44. Format                                   : DTS XLL
  45. Format/Info                              : Digital Theater Systems
  46. Commercial name                          : DTS-HD Master Audio
  47. Codec ID                                 : A_DTS
  48. Duration                                 : 1 h 40 min
  49. Bit rate mode                            : Variable
  50. Bit rate                                 : 2 482 kb/s
  51. Channel(s)                               : 6 channels
  52. Channel layout                           : C L R Ls Rs LFE
  53. Sampling rate                            : 48.0 kHz
  54. Frame rate                               : 93.750 FPS (512 SPF)
  55. Bit depth                                : 24 bits
  56. Compression mode                         : Lossless
  57. Stream size                              : 1.74 GiB (8%)
  58. Title                                    : DTS-HD Master Audio / 5.1 / 48 kHz / 2489 kbps / 24-bit
  59. Language                                 : English
  60. Default                                  : Yes
  61. Forced                                   : No
  62.  
  63. Audio #2
  64. ID                                       : 3
  65. Format                                   : AC-3
  66. Format/Info                              : Audio Coding 3
  67. Commercial name                          : Dolby Digital
  68. Codec ID                                 : A_AC3
  69. Duration                                 : 1 h 40 min
  70. Bit rate mode                            : Constant
  71. Bit rate                                 : 224 kb/s
  72. Channel(s)                               : 2 channels
  73. Channel layout                           : L R
  74. Sampling rate                            : 48.0 kHz
  75. Frame rate                               : 31.250 FPS (1536 SPF)
  76. Bit depth                                : 16 bits
  77. Compression mode                         : Lossy
  78. Stream size                              : 162 MiB (1%)
  79. Title                                    : Commentary by director Cameron Crowe and actors John Cusack and Ione Skye
  80. Language                                 : English
  81. Service kind                             : Complete Main
  82. Default                                  : No
  83. Forced                                   : No
  84.  
  85. Text #1
  86. ID                                       : 4
  87. Format                                   : PGS
  88. Codec ID                                 : S_HDMV/PGS
  89. Codec ID/Info                            : Picture based subtitle format used on BDs/HD-DVDs
  90. Duration                                 : 1 h 40 min
  91. Bit rate                                 : 65.9 kb/s
  92. Count of elements                        : 2938
  93. Stream size                              : 47.3 MiB (0%)
  94. Title                                    : SDH
  95. Language                                 : English
  96. Default                                  : No
  97. Forced                                   : No
  98.  
  99. Text #2
  100. ID                                       : 5
  101. Format                                   : PGS
  102. Codec ID                                 : S_HDMV/PGS
  103. Codec ID/Info                            : Picture based subtitle format used on BDs/HD-DVDs
  104. Duration                                 : 1 h 40 min
  105. Bit rate                                 : 56.9 kb/s
  106. Count of elements                        : 2800
  107. Stream size                              : 40.7 MiB (0%)
  108. Title                                    : Cantonese
  109. Language                                 : Chinese
  110. Default                                  : No
  111. Forced                                   : No
  112.  
  113. Text #3
  114. ID                                       : 6
  115. Format                                   : PGS
  116. Codec ID                                 : S_HDMV/PGS
  117. Codec ID/Info                            : Picture based subtitle format used on BDs/HD-DVDs
  118. Duration                                 : 1 h 40 min
  119. Bit rate                                 : 60.6 kb/s
  120. Count of elements                        : 2800
  121. Stream size                              : 43.4 MiB (0%)
  122. Title                                    : Mandarin (Traditional)
  123. Language                                 : Chinese
  124. Default                                  : No
  125. Forced                                   : No
  126.  
  127. Text #4
  128. ID                                       : 7
  129. Format                                   : PGS
  130. Codec ID                                 : S_HDMV/PGS
  131. Codec ID/Info                            : Picture based subtitle format used on BDs/HD-DVDs
  132. Duration                                 : 1 h 40 min
  133. Bit rate                                 : 47.0 kb/s
  134. Count of elements                        : 2410
  135. Stream size                              : 33.7 MiB (0%)
  136. Title                                    : Latin American
  137. Language                                 : Spanish
  138. Default                                  : No
  139. Forced                                   : No
  140.  
  141. Menu
  142. 00:00:00.000                             : en:Main Title
  143. 00:01:44.187                             : en:Graduation
  144. 00:11:06.332                             : en:Kick Boxing
  145. 00:13:12.333                             : en:Good News
  146. 00:15:58.916                             : en:A Date
  147. 00:23:16.895                             : en:A Songwriter
  148. 00:30:39.504                             : en:The Keymaster
  149. 00:36:49.416                             : en:Lloyd is Doomed
  150. 00:42:38.097                             : en:The I.R.S.
  151. 00:44:47.393                             : en:Old People
  152. 00:47:46.489                             : en:Friends with Potential
  153. 00:52:42.701                             : en:A Father's Concern
  154. 00:58:24.251                             : en:About the Future
  155. 01:01:38.987                             : en:Love Hurts
  156. 01:09:12.357                             : en:Advice
  157. 01:16:26.582                             : en:Serenade
  158. 01:17:57.131                             : en:About Your Father
  159. 01:24:49.293                             : en:Plea Bargaining
  160. 01:32:32.547                             : en:The Flight
  161. 01:35:17.795                             : en:End Titles
RAW Paste Data
We use cookies for various purposes including analytics. By continuing to use Pastebin, you agree to our use of cookies as described in the Cookies Policy. OK, I Understand
 
Top