GrabHD

Untitled

Feb 21st, 2020
134
Never
Not a member of Pastebin yet? Sign Up, it unlocks many cool features!
  1. General
  2. Unique ID : 48011132118302270028906071230822005217 (0x241E9B924BE59CE626B48AF0D808B9E1)
  3. Complete name : F:ФильмыПарни со стволами (2016).mkv
  4. Format : Matroska
  5. Format version : Version 4 / Version 2
  6. File size : 5.75 GiB
  7. Duration : 1 h 54 min
  8. Overall bit rate : 7 210 kb/s
  9. Encoded date : UTC 2018-10-15 19:09:47
  10. Writing application : mkvmerge v26.0.0 ('In The Game') 64-bit
  11. Writing library : libebml v1.3.6 + libmatroska v1.4.9
  12. Cover : Yes
  13. Attachments : cover.jpg
  14. Encoding Gui : Hybrid 2018.10.07.1
  15.  
  16. Video
  17. ID : 1
  18. Format : HEVC
  19. Format/Info : High Efficiency Video Coding
  20. Format profile : Main 10@L5.1@High
  21. Codec ID : V_MPEGH/ISO/HEVC
  22. Duration : 1 h 54 min
  23. Bit rate : 5 927 kb/s
  24. Width : 1 920 pixels
  25. Height : 800 pixels
  26. Display aspect ratio : 2.40:1
  27. Frame rate mode : Constant
  28. Frame rate : 23.976 (24000/1001) FPS
  29. Color space : YUV
  30. Chroma subsampling : 4:2:0 (Type 0)
  31. Bit depth : 10 bits
  32. Bits/(Pixel*Frame) : 0.161
  33. Stream size : 4.73 GiB (82%)
  34. Writing library : x265 2.9+1-169e76b6bbcc:[Windows][GCC 8.2.0][64 bit] 10bit
  35. Encoding settings : cpuid=1049071 / frame-threads=4 / numa-pools=12,12 / wpp / no-pmode / no-pme / no-psnr / no-ssim / log-level=2 / input-csp=1 / input-res=1920x800 / interlace=0 / total-frames=0 / level-idc=51 / high-tier=1 / uhd-bd=0 / ref=5 / no-allow-non-conformance / no-repeat-headers / annexb / no-aud / no-hrd / info / hash=0 / no-temporal-layers / open-gop / min-keyint=23 / keyint=240 / gop-lookahead=0 / bframes=8 / b-adapt=2 / b-pyramid / bframe-bias=0 / rc-lookahead=40 / lookahead-slices=5 / scenecut=40 / radl=0 / no-intra-refresh / ctu=64 / min-cu-size=8 / rect / no-amp / max-tu-size=32 / tu-inter-depth=3 / tu-intra-depth=3 / limit-tu=4 / rdoq-level=2 / dynamic-rd=0.00 / no-ssim-rd / signhide / no-tskip / nr-intra=0 / nr-inter=0 / no-constrained-intra / no-strong-intra-smoothing / max-merge=3 / limit-refs=3 / limit-modes / me=3 / subme=7 / merange=57 / temporal-mvp / weightp / weightb / no-analyze-src-pics / deblock=-3:-3 / no-sao / no-sao-non-deblock / rd=4 / no-early-skip / rskip / no-fast-intra / no-tskip-fast / no-cu-lossless / no-b-intra / no-splitrd-skip / rdpenalty=0 / psy-rd=2.00 / psy-rdoq=1.00 / no-rd-refine / no-lossless / cbqpoffs=0 / crqpoffs=0 / rc=crf / crf=18.0 / qcomp=0.60 / qpstep=4 / stats-write=0 / stats-read=0 / vbv-maxrate=160000 / vbv-bufsize=160000 / vbv-init=0.9 / crf-max=0.0 / crf-min=0.0 / ipratio=1.40 / pbratio=1.30 / aq-mode=1 / aq-strength=1.00 / cutree / zone-count=1 / zones: / start-frame=155825 / end-frame=164305 / qp=35 / no-strict-cbr / qg-size=32 / no-rc-grain / qpmax=69 / qpmin=0 / no-const-vbv / sar=0 / overscan=0 / videoformat=5 / range=0 / colorprim=2 / transfer=2 / colormatrix=1 / chromaloc=1 / chromaloc-top=0 / chromaloc-bottom=0 / display-window=0 / max-cll=0,0 / min-luma=0 / max-luma=1023 / log2-max-poc-lsb=8 / vui-timing-info / vui-hrd-info / slices=1 / no-opt-qp-pps / no-opt-ref-list-length-pps / no-multi-pass-opt-rps / scenecut-bias=0.05 / no-opt-cu-delta-qp / no-aq-motion / no-hdr / no-hdr-opt / no-dhdr10-opt / no-idr-recovery-sei / analysis-reuse-level=5 / scale-factor=0 / refine-intra=0 / refine-inter=0 / refine-mv=0 / no-limit-sao / ctu-info=0 / no-lowpass-dct / refine-mv-type=0 / copy-pic=1 / max-ausize-factor=1.0 / no-dynamic-refine / no-single-sei
  36. Language : English
  37. Default : Yes
  38. Forced : Yes
  39. Color range : Limited
  40. Matrix coefficients : BT.709
  41.  
  42. Audio #1
  43. ID : 2
  44. Format : AC-3
  45. Format/Info : Audio Coding 3
  46. Commercial name : Dolby Digital
  47. Codec ID : A_AC3
  48. Duration : 1 h 54 min
  49. Bit rate mode : Constant
  50. Bit rate : 640 kb/s
  51. Channel(s) : 6 channels
  52. Channel layout : L R C LFE Ls Rs
  53. Sampling rate : 48.0 kHz
  54. Frame rate : 31.250 FPS (1536 SPF)
  55. Bit depth : 16 bits
  56. Compression mode : Lossy
  57. Stream size : 523 MiB (9%)
  58. Title : DUB [Blu-Ray CEE]
  59. Language : Russian
  60. Service kind : Complete Main
  61. Default : Yes
  62. Forced : No
  63.  
  64. Audio #2
  65. ID : 3
  66. Format : AC-3
  67. Format/Info : Audio Coding 3
  68. Commercial name : Dolby Digital
  69. Codec ID : A_AC3
  70. Duration : 1 h 54 min
  71. Bit rate mode : Constant
  72. Bit rate : 640 kb/s
  73. Channel(s) : 6 channels
  74. Channel layout : L R C LFE Ls Rs
  75. Sampling rate : 48.0 kHz
  76. Frame rate : 31.250 FPS (1536 SPF)
  77. Bit depth : 16 bits
  78. Compression mode : Lossy
  79. Stream size : 523 MiB (9%)
  80. Title : Original
  81. Language : English
  82. Service kind : Complete Main
  83. Default : No
  84. Forced : No
  85.  
  86. Text #1
  87. ID : 4
  88. Format : UTF-8
  89. Codec ID : S_TEXT/UTF8
  90. Codec ID/Info : UTF-8 Plain Text
  91. Duration : 1 h 48 min
  92. Bit rate : 2 b/s
  93. Count of elements : 42
  94. Stream size : 1.77 KiB (0%)
  95. Title : Forced
  96. Language : Russian
  97. Default : Yes
  98. Forced : No
  99.  
  100. Text #2
  101. ID : 5
  102. Format : UTF-8
  103. Codec ID : S_TEXT/UTF8
  104. Codec ID/Info : UTF-8 Plain Text
  105. Duration : 1 h 53 min
  106. Bit rate : 110 b/s
  107. Count of elements : 1297
  108. Stream size : 91.5 KiB (0%)
  109. Title : Full
  110. Language : Russian
  111. Default : No
  112. Forced : No
  113.  
  114. Text #3
  115. ID : 6
  116. Format : UTF-8
  117. Codec ID : S_TEXT/UTF8
  118. Codec ID/Info : UTF-8 Plain Text
  119. Duration : 1 h 47 min
  120. Bit rate : 71 b/s
  121. Count of elements : 1773
  122. Stream size : 56.2 KiB (0%)
  123. Title : Full
  124. Language : English
  125. Default : No
  126. Forced : No
  127.  
  128. Text #4
  129. ID : 7
  130. Format : UTF-8
  131. Codec ID : S_TEXT/UTF8
  132. Codec ID/Info : UTF-8 Plain Text
  133. Duration : 1 h 47 min
  134. Bit rate : 76 b/s
  135. Count of elements : 1921
  136. Stream size : 60.3 KiB (0%)
  137. Title : SDH
  138. Language : English
  139. Default : No
  140. Forced : No
  141.  
  142. Menu
  143. 00:00:00.000 : en:Chapter 01
  144. 00:10:13.487 : en:Chapter 02
  145. 00:19:00.848 : en:Chapter 03
  146. 00:30:21.110 : en:Chapter 04
  147. 00:40:02.149 : en:Chapter 05
  148. 00:50:56.178 : en:Chapter 06
  149. 00:59:34.237 : en:Chapter 07
  150. 01:10:59.213 : en:Chapter 08
  151. 01:20:08.720 : en:Chapter 09
  152. 01:32:06.020 : en:Chapter 10
  153. 01:39:36.011 : en:Chapter 11
  154. 01:48:19.117 : en:Chapter 12
RAW Paste Data