SHARE
TWEET

Untitled

a guest Feb 20th, 2020 81 Never
Not a member of Pastebin yet? Sign Up, it unlocks many cool features!
  1. Общее
  2. Уникальный идентификатор                 : 88347446906494474309596485927563054331 (0x4277196F0CCA306DF0B04844EFDE4CFB)
  3. Полное имя                               : Maleficent Mistress of Evil (2019) BDRip (1280x536) HEVC.mkv
  4. Формат                                   : Matroska
  5. Версия формата                           : Version 4 / Version 2
  6. Размер файла                             : 4,81 Гбайт
  7. Продолжительность                        : 1 ч. 58 м.
  8. Общий поток                              : 5791 Кбит/сек
  9. Название фильма                          : Maleficent Mistress of Evil 2019
  10. Программа кодирования                    : XviD4PSP 8.0.91
  11. Библиотека кодирования                   : Lavf58.20.100
  12. ErrorDetectionType                       : Per level 1
  13. ENCODING_INFO                            : MATROSKA,WEBM > MKV 1280x720 HEVC 10-bit
  14.  
  15. Видео
  16. Идентификатор                            : 1
  17. Формат                                   : HEVC
  18. Формат/Информация                        : High Efficiency Video Coding
  19. Профиль формата                          : Main 10@L4.1@High
  20. Идентификатор кодека                     : V_MPEGH/ISO/HEVC
  21. Продолжительность                        : 1 ч. 58 м.
  22. Битрейт                                  : 4844 Кбит/сек
  23. Ширина                                   : 1280 пикселей
  24. Высота                                   : 536 пикселей
  25. Соотношение сторон                       : 2,40:1
  26. Режим частоты кадров                     : Постоянный
  27. Частота кадров                           : 23,976 (24000/1001) кадра/сек
  28. Цветовое пространство                    : YUV
  29. Субдискретизация насыщенности            : 4:2:0
  30. Битовая глубина                          : 10 бит
  31. Бит/(Пиксели*Кадры)                      : 0.294
  32. Размер потока                            : 4,02 Гбайт (84%)
  33. Язык                                     : English
  34. Default                                  : Да
  35. Forced                                   : Нет
  36. Цветовой диапазон                        : Full
  37. ENCODING_INFO                            : H264 > HEVC NVENC VBR 5000kbps HQ
  38.  
  39. Аудио #1
  40. Идентификатор                            : 2
  41. Формат                                   : AC-3
  42. Формат/Информация                        : Audio Coding 3
  43. Параметр Endianness формата              : Big
  44. Идентификатор кодека                     : A_AC3
  45. Продолжительность                        : 1 ч. 58 м.
  46. Вид битрейта                             : Постоянный
  47. Битрейт                                  : 384 Кбит/сек
  48. Каналы                                   : 6 каналов
  49. Расположение каналов                     : Front: L C R, Side: L R, LFE
  50. Частота                                  : 48,0 КГц
  51. Частота кадров                           : 31,250 кадров/сек (1536 SPF)
  52. Битовая глубина                          : 16 бит
  53. Метод сжатия                             : С потерями
  54. Размер потока                            : 326 Мбайт (7%)
  55. Заголовок                                : iTunes
  56. Язык                                     : Russian
  57. ServiceKind/String                       : Complete Main
  58. Default                                  : Да
  59. Forced                                   : Нет
  60. ENCODING_INFO                            : AC3 > COPY Безопасное
  61.  
  62. Аудио #2
  63. Идентификатор                            : 3
  64. Формат                                   : AC-3
  65. Формат/Информация                        : Audio Coding 3
  66. Параметр Endianness формата              : Big
  67. Идентификатор кодека                     : A_AC3
  68. Продолжительность                        : 1 ч. 58 м.
  69. Вид битрейта                             : Постоянный
  70. Битрейт                                  : 448 Кбит/сек
  71. Каналы                                   : 6 каналов
  72. Расположение каналов                     : Front: L C R, Side: L R, LFE
  73. Частота                                  : 48,0 КГц
  74. Частота кадров                           : 31,250 кадров/сек (1536 SPF)
  75. Битовая глубина                          : 16 бит
  76. Метод сжатия                             : С потерями
  77. Размер потока                            : 381 Мбайт (8%)
  78. Заголовок                                : Original
  79. Язык                                     : English
  80. ServiceKind/String                       : Complete Main
  81. Default                                  : Нет
  82. Forced                                   : Нет
  83. ENCODING_INFO                            : DTS-HD MA > AC3 CBR 448kbps
  84.  
  85. Текст #1
  86. Идентификатор                            : 4
  87. Формат                                   : UTF-8
  88. Идентификатор кодека                     : S_TEXT/UTF8
  89. Идентификатор кодека/Информация          : UTF-8 Plain Text
  90. Заголовок                                : Full
  91. Язык                                     : Russian
  92. Default                                  : Да
  93. Forced                                   : Нет
  94. ENCODING_INFO                            : SUBRIP > COPY Быстрое
  95.  
  96. Текст #2
  97. Идентификатор                            : 5
  98. Формат                                   : UTF-8
  99. Идентификатор кодека                     : S_TEXT/UTF8
  100. Идентификатор кодека/Информация          : UTF-8 Plain Text
  101. Заголовок                                : SDH
  102. Язык                                     : Russian
  103. Default                                  : Нет
  104. Forced                                   : Нет
  105. ENCODING_INFO                            : SUBRIP > COPY Быстрое
  106.  
  107. Текст #3
  108. Идентификатор                            : 6
  109. Формат                                   : UTF-8
  110. Идентификатор кодека                     : S_TEXT/UTF8
  111. Идентификатор кодека/Информация          : UTF-8 Plain Text
  112. Заголовок                                : Full
  113. Язык                                     : English
  114. Default                                  : Нет
  115. Forced                                   : Нет
  116. ENCODING_INFO                            : SUBRIP > COPY Быстрое
  117.  
  118. Меню
  119. 00:00:00.000                             : :Chapter 01
  120. 00:06:47.907                             : :Chapter 02
  121. 00:09:11.676                             : :Chapter 03
  122. 00:14:45.551                             : :Chapter 04
  123. 00:19:27.833                             : :Chapter 05
  124. 00:23:10.556                             : :Chapter 06
  125. 00:33:51.905                             : :Chapter 07
  126. 00:39:10.265                             : :Chapter 08
  127. 00:42:19.579                             : :Chapter 09
  128. 00:48:31.992                             : :Chapter 10
  129. 00:52:44.745                             : :Chapter 11
  130. 00:57:15.140                             : :Chapter 12
  131. 00:59:26.146                             : :Chapter 13
  132. 01:05:47.569                             : :Chapter 14
  133. 01:09:31.751                             : :Chapter 15
  134. 01:19:07.242                             : :Chapter 16
  135. 01:22:48.547                             : :Chapter 17
  136. 01:29:09.219                             : :Chapter 18
  137. 01:35:00.653                             : :Chapter 19
  138. 01:44:26.510                             : :Chapter 20
  139. 01:51:06.994                             : :Chapter 21
RAW Paste Data
We use cookies for various purposes including analytics. By continuing to use Pastebin, you agree to our use of cookies as described in the Cookies Policy. OK, I Understand
Top