HYBRID_BEING

[scribbles] New Game! - 02 [738B3C66].mkv

Aug 5th, 2016
70
Never
Not a member of Pastebin yet? Sign Up, it unlocks many cool features!
  1. General
  2. Unique ID : 237026246010820004000195300498898888722 (0xB251982FD3E6B9269F6C1B529BD32812)
  3. Complete name : [scribbles] New Game! - 02 [738B3C66].mkv
  4. Format : Matroska
  5. Format version : Version 4 / Version 2
  6. File size : 279 MiB
  7. Duration : 23mn 40s
  8. Overall bit rate : 1 649 Kbps
  9. Encoded date : UTC 2016-07-29 11:24:22
  10. Writing application : mkvmerge v9.3.1 ('Mask Machine') 32bit
  11. Writing library : libebml v1.3.4 + libmatroska v1.4.5
  12. Attachments : ELMER-FIXED.ttf / IwaMinPro-Md-Kami_9.ttf / KGArrows-Regular.ttf / KGShadowOfTheDay_4.ttf / KOZGOPRO-MEDIUM-ENG_1.ttf / Syras-Script-Brush-Regular.ttf / ThrowMyHands-Bold.ttf / TRDKCRAYONCRUMBLE.ttf / AceKard Bitmap.ttf / akbar_0.ttf / classhyouka.ttf / DeschTypeMercurius-Medium Italic.ttf / DeschTypeMercurius-Medium Medium.ttf
  13.  
  14. Video
  15. ID : 1
  16. Format : AVC
  17. Format/Info : Advanced Video Codec
  18. Format profile : High 10@L5
  19. Format settings, CABAC : Yes
  20. Format settings, ReFrames : 16 frames
  21. Codec ID : V_MPEG4/ISO/AVC
  22. Duration : 23mn 40s
  23. Bit rate : 1 506 Kbps
  24. Width : 1 280 pixels
  25. Height : 720 pixels
  26. Display aspect ratio : 16:9
  27. Frame rate mode : Constant
  28. Frame rate : 23.976 (24000/1001) fps
  29. Color space : YUV
  30. Chroma subsampling : 4:2:0
  31. Bit depth : 10 bits
  32. Scan type : Progressive
  33. Bits/(Pixel*Frame) : 0.068
  34. Stream size : 255 MiB (91%)
  35. Writing library : x264 core 148 r2705+54 9f484c1 t_mod_Custom [10-bit@all X86_64]
  36. Encoding settings : cabac=1 / ref=16 / deblock=1:-1:-2 / analyse=0x3:0x133 / me=umh / subme=10 / psy=1 / fade_compensate=0.45 / psy_rd=0.45:0.02 / mixed_ref=1 / me_range=24 / chroma_me=1 / trellis=2 / 8x8dct=1 / cqm=0 / deadzone=21,11 / fast_pskip=0 / chroma_qp_offset=-3 / threads=9 / lookahead_threads=2 / sliced_threads=0 / nr=0 / decimate=0 / interlaced=0 / bluray_compat=0 / constrained_intra=0 / fgo=0 / bframes=16 / b_pyramid=2 / b_adapt=2 / b_bias=0 / direct=3 / weightb=1 / open_gop=0 / weightp=2 / keyint=250 / keyint_min=24 / scenecut=40 / intra_refresh=0 / rc_lookahead=80 / rc=crf / mbtree=1 / crf=17.5000 / qcomp=0.75 / qpmin=0:0:0 / qpmax=48:48:48 / qpstep=4 / ip_ratio=1.40 / aq=3:0.86 / aq-sensitivity=10.00 / aq-factor=1.00:1.00:1.00 / aq2=0 / aq3=0
  37. Language : Japanese
  38. Default : Yes
  39. Forced : No
  40. Color range : Limited
  41. Matrix coefficients : BT.709
  42.  
  43. Audio
  44. ID : 2
  45. Format : AAC
  46. Format/Info : Advanced Audio Codec
  47. Format profile : LC
  48. Codec ID : A_AAC
  49. Duration : 23mn 40s
  50. Bit rate : 128 Kbps
  51. Channel(s) : 2 channels
  52. Channel positions : Front: L R
  53. Sampling rate : 44.1 KHz
  54. Frame rate : 43.066 fps (1024 spf)
  55. Compression mode : Lossy
  56. Stream size : 21.7 MiB (8%)
  57. Language : Japanese
  58. Default : Yes
  59. Forced : No
  60.  
  61. Text
  62. ID : 3
  63. Format : ASS
  64. Codec ID : S_TEXT/ASS
  65. Codec ID/Info : Advanced Sub Station Alpha
  66. Duration : 23mn 37s
  67. Bit rate : 1 539 bps
  68. Count of elements : 2081
  69. Compression mode : Lossless
  70. Stream size : 266 KiB (0%)
  71. Default : Yes
  72. Forced : No
  73.  
  74. Menu
  75. 00:00:00.033 : en:Intro
  76. 00:00:36.050 : en:OP
  77. 00:02:05.980 : en:Part A
  78. 00:11:16.030 : en:Part B
  79. 00:20:33.040 : en:ED
  80. 00:22:03.000 : en:Part C
  81. 00:23:25.000 : en:Preview
RAW Paste Data