Advertisement
Henry_Kr

STP-S01

Feb 11th, 2022
57
Never
Not a member of Pastebin yet? Sign Up, it unlocks many cool features!
  1. Video
  2. ID : 1
  3. Format : AVC
  4. Format/Info : Advanced Video Codec
  5. Format profile : High@L4
  6. Format settings : CABAC / 4 Ref Frames
  7. Format settings, CABAC : Yes
  8. Format settings, Reference : 4 frames
  9. Codec ID : V_MPEG4/ISO/AVC
  10. Duration : 24 min 29 s
  11. Bit rate mode : Constant
  12. Bit rate : 6 326 kb/s
  13. Nominal bit rate : 10 000 kb/s
  14. Width : 1 920 pixels
  15. Height : 1 080 pixels
  16. Display aspect ratio : 16:9
  17. Frame rate mode : Constant
  18. Frame rate : 23.976 (24000/1001) FPS
  19. Color space : YUV
  20. Chroma subsampling : 4:2:0
  21. Bit depth : 8 bits
  22. Scan type : Progressive
  23. Bits/(Pixel*Frame) : 0.127
  24. Stream size : 1.08 GiB (97%)
  25. Title : Star.Trek.Prodigy.S01E02.1080p.AMZN.WEB.[CartoonNOW]
  26. Default : Yes
  27. Forced : No
  28. Color range : Limited
  29. Color primaries : BT.709
  30. Transfer characteristics : BT.709
  31. Matrix coefficients : BT.709
  32.  
  33. Audio
  34. ID : 2
  35. Format : E-AC-3
  36. Format/Info : Enhanced AC-3
  37. Commercial name : Dolby Digital Plus
  38. Codec ID : A_EAC3
  39. Duration : 24 min 29 s
  40. Bit rate mode : Constant
  41. Bit rate : 224 kb/s
  42. Channel(s) : 2 channels
  43. Channel layout : L R
  44. Sampling rate : 48.0 kHz
  45. Frame rate : 31.250 FPS (1536 SPF)
  46. Compression mode : Lossy
  47. Stream size : 39.2 MiB (3%)
  48. Language : English
  49. Service kind : Complete Main
  50. Default : No
  51. Forced : No
Advertisement
RAW Paste Data Copied
Advertisement