HYBRID_BEING

[Bakemono] Handa-kun - 02 [720p x264] [5C325B39].mkv

Aug 28th, 2016
108
Never
Not a member of Pastebin yet? Sign Up, it unlocks many cool features!
  1. General
  2. Unique ID : 233377231242492755815364334547878537336 (0xAF92D1DE55B6BEE7B1E01CC73EEFE878)
  3. Complete name : [Bakemono] Handa-kun - 02 [720p x264] [5C325B39].mkv
  4. Format : Matroska
  5. Format version : Version 4 / Version 2
  6. File size : 281 MiB
  7. Duration : 24mn 11s
  8. Overall bit rate : 1 626 Kbps
  9. Encoded date : UTC 2016-08-25 18:35:13
  10. Writing application : mkvmerge v9.2.0 ('Photograph') 64bit
  11. Writing library : libebml v1.3.3 + libmatroska v1.4.4
  12. Attachments : AGATA.TTF / AIRSTREAMITC.TTF / ALLANROOSTER.TTF / AMERYBRUSH.TTF / ANGELLA.TTF / ARGOSYBOLD.TTF / BRUSHIEBRUSHIE-REGULAR.OTF / Cabin-Bold-TTF_1.ttf / Cabin-BoldItalic-TTF_1.ttf / Caveat-Bold_0.ttf / ChalkDustExtended.ttf / CHIHAYAGOTHIC.TTF / CHINACAT.TTF / DejaVuSans-Bold_3.ttf / DJBYARDSALEMARKER-BOLD.TTF / FENNARIO.TTF / FOT COMET STD BOLD.TTF / HANDWRITTENCRYSTALV2.TTF / JAPERS.TTF
  13.  
  14. Video
  15. ID : 1
  16. Format : AVC
  17. Format/Info : Advanced Video Codec
  18. Format profile : High 10@L5
  19. Format settings, CABAC : Yes
  20. Format settings, ReFrames : 16 frames
  21. Codec ID : V_MPEG4/ISO/AVC
  22. Duration : 24mn 9s
  23. Bit rate : 1 411 Kbps
  24. Width : 1 280 pixels
  25. Height : 720 pixels
  26. Display aspect ratio : 16:9
  27. Frame rate mode : Constant
  28. Frame rate : 23.976 (24000/1001) fps
  29. Color space : YUV
  30. Chroma subsampling : 4:2:0
  31. Bit depth : 10 bits
  32. Scan type : Progressive
  33. Bits/(Pixel*Frame) : 0.064
  34. Stream size : 244 MiB (87%)
  35. Writing library : x264 core 148 r2705+54M 9f484c1 Kanachihiro | Emilia-tan Maji Tenshi
  36. Encoding settings : cabac=1 / ref=16 / deblock=1:-1:-1 / analyse=0x3:0x133 / me=umh / subme=10 / psy=1 / fade_compensate=0.00 / psy_rd=0.77:0.00 / mixed_ref=1 / me_range=24 / chroma_me=1 / trellis=2 / 8x8dct=1 / cqm=0 / deadzone=21,11 / fast_pskip=1 / chroma_qp_offset=-2 / threads=6 / lookahead_threads=1 / sliced_threads=0 / nr=0 / decimate=1 / interlaced=0 / bluray_compat=0 / constrained_intra=0 / fgo=0 / bframes=16 / b_pyramid=2 / b_adapt=2 / b_bias=0 / direct=3 / weightb=1 / open_gop=0 / weightp=2 / keyint=250 / keyint_min=23 / scenecut=40 / intra_refresh=0 / rc_lookahead=60 / rc=crf / mbtree=1 / crf=18.0000 / qcomp=0.72 / qpmin=0:0:0 / qpmax=81:81:81 / qpstep=4 / ip_ratio=1.40 / aq=3:0.80 / aq-sensitivity=10.00 / aq-factor=1.00:1.00:1.00 / aq2=0 / aq3=0
  37. Language : English
  38. Default : Yes
  39. Forced : No
  40. Color range : Limited
  41. Matrix coefficients : BT.709
  42.  
  43. Audio
  44. ID : 2
  45. Format : AAC
  46. Format/Info : Advanced Audio Codec
  47. Format profile : LC
  48. Codec ID : A_AAC
  49. Duration : 24mn 9s
  50. Bit rate : 192 Kbps
  51. Channel(s) : 2 channels
  52. Channel positions : Front: L R
  53. Sampling rate : 48.0 KHz
  54. Frame rate : 46.875 fps (1024 spf)
  55. Compression mode : Lossy
  56. Stream size : 32.6 MiB (12%)
  57. Default : Yes
  58. Forced : No
  59.  
  60. Text
  61. ID : 3
  62. Format : ASS
  63. Codec ID : S_TEXT/ASS
  64. Codec ID/Info : Advanced Sub Station Alpha
  65. Duration : 24mn 11s
  66. Bit rate : 6 418 bps
  67. Count of elements : 6145
  68. Compression mode : Lossless
  69. Stream size : 1.11 MiB (0%)
  70. Language : English
  71. Default : Yes
  72. Forced : No
  73.  
  74. Menu
  75. 00:00:00.000 : :Part A
  76. 00:05:09.851 : :OP
  77. 00:06:39.691 : :Part B
  78. 00:14:19.734 : :Part C
  79. 00:22:09.745 : :ED
  80. 00:23:39.710 : :Part D
RAW Paste Data