SHARE
TWEET

Media Info

a guest Feb 20th, 2020 308 Never
Not a member of Pastebin yet? Sign Up, it unlocks many cool features!
  1. Format                      : Matroska
  2. Format version              : Version 4
  3. File size                   : 1.51 GiB
  4. Duration                    : 2 h 37 min
  5. Overall bit rate mode       : Variable
  6. Overall bit rate            : 1 377 kb/s
  7. Movie name                  : Visit: MkvHub.Com
  8. Encoded date                : UTC 2020-02-21 00:20:16
  9. Writing application         : mkvmerge v10.0.0 ('To Drown In You') 64bit
  10. Writing library             : libebml v1.3.4 + libmatroska v1.4.5
  11.  
  12. Video
  13. ID                          : 1
  14. Format                      : AVC
  15. Format/Info                 : Advanced Video Codec
  16. Format profile              : High@L3.1
  17. Format settings             : CABAC / 4 Ref Frames
  18. Format settings, CABAC      : Yes
  19. Format settings, ReFrames   : 4 frames
  20. Codec ID                    : V_MPEG4/ISO/AVC
  21. Duration                    : 2 h 37 min
  22. Bit rate                    : 1 136 kb/s
  23. Width                       : 1 280 pixels
  24. Height                      : 520 pixels
  25. Display aspect ratio        : 2.462
  26. Frame rate mode             : Constant
  27. Frame rate                  : 24.000 FPS
  28. Color space                 : YUV
  29. Chroma subsampling          : 4:2:0
  30. Bit depth                   : 8 bits
  31. Scan type                   : Progressive
  32. Bits/(Pixel*Frame)          : 0.071
  33. Stream size                 : 1.23 GiB (81%)
  34. Title                       : MkvHub.Com
  35. Writing library             : x264 core 157 r2935 545de2f
  36. Encoding settings           : cabac=1 / ref=1 / deblock=1:0:0 / analyse=0x3:0x113 / me=hex / subme=2 / psy=1 / psy_rd=1.00:0.00 / mixed_ref=0 / me_range=16 / chroma_me=1 / trellis=0 / 8x8dct=1 / cqm=0 / deadzone=21,11 / fast_pskip=1 / chroma_qp_offset=0 / threads=16 / lookahead_threads=4 / sliced_threads=0 / nr=0 / decimate=1 / interlaced=0 / bluray_compat=0 / constrained_intra=0 / bframes=3 / b_pyramid=2 / b_adapt=1 / b_bias=0 / direct=1 / weightb=1 / open_gop=0 / weightp=1 / keyint=240 / keyint_min=24 / scenecut=40 / intra_refresh=0 / rc_lookahead=10 / rc=abr / mbtree=1 / bitrate=1136 / ratetol=1.0 / qcomp=0.60 / qpmin=0 / qpmax=69 / qpstep=4 / ip_ratio=1.40 / aq=1:1.00
  37. Language                    : Hindi
  38. Default                     : Yes
  39. Forced                      : No
  40.  
  41. Audio #1
  42. ID                          : 2
  43. Format                      : MPEG Audio
  44. Format version              : Version 1
  45. Format profile              : Layer 3
  46. Format settings             : Joint stereo / MS Stereo
  47. Codec ID                    : A_MPEG/L3
  48. Codec ID/Hint               : MP3
  49. Duration                    : 2 h 37 min
  50. Bit rate mode               : Variable
  51. Bit rate                    : 96.0 kb/s
  52. Channel(s)                  : 2 channels
  53. Sampling rate               : 48.0 kHz
  54. Frame rate                  : 41.667 FPS (1152 SPF)
  55. Compression mode            : Lossy
  56. Stream size                 : 103 MiB (7%)
  57. Title                       : MkvHub.Com
  58. Writing library             : LAME3.99r
  59. Encoding settings           : -m j -V 4 -q 3 -lowpass 15.1 --abr 96
  60. Language                    : Hindi
  61. Default                     : Yes
  62. Forced                      : Yes
  63.  
  64. Audio #2
  65. ID                          : 3
  66. Format                      : AAC LC
  67. Format/Info                 : Advanced Audio Codec Low Complexity
  68. Codec ID                    : A_AAC-2
  69. Duration                    : 2 h 37 min
  70. Bit rate                    : 64.0 kb/s
  71. Channel(s)                  : 2 channels
  72. Channel layout              : L R
  73. Sampling rate               : 48.0 kHz
  74. Frame rate                  : 46.875 FPS (1024 SPF)
  75. Compression mode            : Lossy
  76. Stream size                 : 71.9 MiB (5%)
  77. Title                       : MkvHub.Com
  78. Language                    : Tamil
  79. Default                     : No
  80. Forced                      : No
  81.  
  82. Audio #3
  83. ID                          : 4
  84. Format                      : MPEG Audio
  85. Format version              : Version 1
  86. Format profile              : Layer 3
  87. Format settings             : Joint stereo / MS Stereo
  88. Codec ID                    : A_MPEG/L3
  89. Codec ID/Hint               : MP3
  90. Duration                    : 2 h 37 min
  91. Bit rate mode               : Variable
  92. Bit rate                    : 96.0 kb/s
  93. Channel(s)                  : 2 channels
  94. Sampling rate               : 48.0 kHz
  95. Frame rate                  : 41.667 FPS (1152 SPF)
  96. Compression mode            : Lossy
  97. Stream size                 : 109 MiB (7%)
  98. Title                       : MkvHub.Com
  99. Writing library             : LAME3.99r
  100. Encoding settings           : -m j -V 4 -q 3 -lowpass 15.1 --abr 96
  101. Language                    : Telugu
  102. Default                     : No
  103. Forced                      : No
  104.  
  105. Text
  106. ID                          : 5
  107. Format                      : UTF-8
  108. Codec ID                    : S_TEXT/UTF8
  109. Codec ID/Info               : UTF-8 Plain Text
  110. Duration                    : 1 h 0 min
  111. Bit rate                    : 0 b/s
  112. Count of elements           : 2
  113. Stream size                 : 118 Bytes (0%)
  114. Default                     : Yes
  115. Forced                      : Yes
RAW Paste Data
We use cookies for various purposes including analytics. By continuing to use Pastebin, you agree to our use of cookies as described in the Cookies Policy. OK, I Understand
Top