Guest User

Untitled

a guest
Nov 17th, 2021
22
Never
Not a member of Pastebin yet? Sign Up, it unlocks many cool features!
  1. Общее
  2. Уникальный идентификатор : 111135642162390975440330984275357027337 (0x539BF23474E8A7FE95E9B60D0C254C09)
  3. Полное имя : Asphalte.1981.BluRay.REMUX.1080p.KNG.mkv
  4. Формат : Matroska
  5. Версия формата : Version 4
  6. Размер файла : 25,7 Гбайт
  7. Продолжительность : 1 ч. 38 м.
  8. Режим общего битрейта : Переменный
  9. Общий поток : 37,3 Мбит/сек
  10. Название фильма : Asphalte 1981
  11. Дата кодирования : UTC 2021-11-17 05:58:54
  12. Программа кодирования : mkvmerge v61.0.0 ('So') 64-bit
  13. Библиотека кодирования : libebml v1.4.2 + libmatroska v1.6.4
  14. Обложка : Yes
  15. Attachments : cover.jpg
  16.  
  17. Видео
  18. Идентификатор : 1
  19. Формат : AVC
  20. Формат/Информация : Advanced Video Codec
  21. Профиль формата : High@L4.1
  22. Настройки формата : CABAC / 4 Ref Frames
  23. Параметр CABAC формата : Да
  24. Параметр RefFrames формата : 4 кадра
  25. Параметр GOP формата : M=4, N=24
  26. Идентификатор кодека : V_MPEG4/ISO/AVC
  27. Продолжительность : 1 ч. 38 м.
  28. Вид битрейта : Переменный
  29. Битрейт : 35,0 Мбит/сек
  30. Максимальный битрейт : 38,0 Мбит/сек
  31. Ширина : 1 920 пикселей
  32. Высота : 1 080 пикселей
  33. Соотношение сторон : 16:9
  34. Режим частоты кадров : Постоянный
  35. Частота кадров : 24,000 кадра/сек
  36. Цветовое пространство : YUV
  37. Субдискретизация насыщенности : 4:2:0
  38. Битовая глубина : 8 бит
  39. Тип развёртки : Прогрессивная
  40. Бит/(Пиксели*Кадры) : 0.703
  41. Размер потока : 24,1 Гбайт (94%)
  42. Заголовок : FRE / Studio Canal
  43. Язык : French
  44. Default : Да
  45. Forced : Нет
  46. Цветовой диапазон : Limited
  47. Основные цвета : BT.709
  48. Характеристики трансфера : BT.709
  49. Коэффициенты матрицы : BT.709
  50.  
  51. Аудио #1
  52. Идентификатор : 2
  53. Формат : AC-3
  54. Формат/Информация : Audio Coding 3
  55. Коммерческое название : Dolby Digital
  56. Идентификатор кодека : A_AC3
  57. Продолжительность : 1 ч. 38 м.
  58. Вид битрейта : Постоянный
  59. Битрейт : 192 Кбит/сек
  60. Каналы : 2 канала
  61. Channel layout : L R
  62. Частота : 48,0 КГц
  63. Частота кадров : 31,250 кадров/сек (1536 SPF)
  64. Метод сжатия : С потерями
  65. Размер потока : 136 Мбайт (1%)
  66. Заголовок : DUB - Ленфильм
  67. Язык : Russian
  68. Service kind : Complete Main
  69. Default : Да
  70. Forced : Нет
  71.  
  72. Аудио #2
  73. Идентификатор : 3
  74. Формат : AC-3
  75. Формат/Информация : Audio Coding 3
  76. Коммерческое название : Dolby Digital
  77. Идентификатор кодека : A_AC3
  78. Продолжительность : 1 ч. 38 м.
  79. Вид битрейта : Постоянный
  80. Битрейт : 192 Кбит/сек
  81. Каналы : 2 канала
  82. Channel layout : L R
  83. Частота : 48,0 КГц
  84. Частота кадров : 31,250 кадров/сек (1536 SPF)
  85. Метод сжатия : С потерями
  86. Размер потока : 136 Мбайт (1%)
  87. Заголовок : MVO - ТВЦ
  88. Язык : Russian
  89. Service kind : Complete Main
  90. Default : Нет
  91. Forced : Нет
  92.  
  93. Аудио #3
  94. Идентификатор : 4
  95. Формат : DTS XLL
  96. Формат/Информация : Digital Theater Systems
  97. Коммерческое название : DTS-HD Master Audio
  98. Идентификатор кодека : A_DTS
  99. Продолжительность : 1 ч. 38 м.
  100. Вид битрейта : Переменный
  101. Битрейт : 1 878 Кбит/сек
  102. Каналы : 2 канала
  103. Channel layout : L R
  104. Частота : 48,0 КГц
  105. Частота кадров : 93,750 кадра/сек (512 SPF)
  106. Битовая глубина : 24 бит
  107. Метод сжатия : Без потерь
  108. Размер потока : 1,29 Гбайт (5%)
  109. Заголовок : Original
  110. Язык : French
  111. Default : Нет
  112. Forced : Нет
  113.  
  114. Текст
  115. Идентификатор : 5
  116. Формат : PGS
  117. Режим смешивания : zlib
  118. Идентификатор кодека : S_HDMV/PGS
  119. Идентификатор кодека/Информация : Picture based subtitle format used on BDs/HD-DVDs
  120. Продолжительность : 1 ч. 38 м.
  121. Битрейт : 26,0 Кбит/сек
  122. Count of elements : 2200
  123. Размер потока : 18,3 Мбайт (0%)
  124. Заголовок : PGS
  125. Язык : French
  126. Default : Нет
  127. Forced : Нет
  128.  
  129. Меню
  130. 00:00:00.000 : :Chapter 01
  131. 00:05:53.083 : :Chapter 02
  132. 00:11:29.750 : :Chapter 03
  133. 00:23:20.666 : :Chapter 04
  134. 00:29:22.250 : :Chapter 05
  135. 00:34:26.000 : :Chapter 06
  136. 00:43:24.833 : :Chapter 07
  137. 00:53:24.750 : :Chapter 08
  138. 01:00:18.125 : :Chapter 09
  139. 01:08:17.458 : :Chapter 10
  140. 01:14:41.583 : :Chapter 11
  141. 01:27:20.833 : :Chapter 12
  142.  
  143.  
RAW Paste Data