trds

Untitled

Nov 27th, 2021
774
Never
Not a member of Pastebin yet? Sign Up, it unlocks many cool features!
  1. General
  2. Unique ID                                : 222281679482772975156343727172168009548 (0xA739E4EE40D3E9D5BEF8A98FB509474C)
  3. Complete name                            : D:\Encodes\Dangal.2016.1080p.BluRay.DD5.1.x264-playHD\Dangal.2016.1080p.BluRay.DD5.1.x264-playHD.mkv
  4. Format                                   : Matroska
  5. Format version                           : Version 4
  6. File size                                : 18.1 GiB
  7. Duration                                 : 2 h 40 min
  8. Overall bit rate                         : 16.1 Mb/s
  9. Encoded date                             : UTC 2021-11-27 14:08:19
  10. Writing application                      : mkvmerge v56.1.0 ('My Friend') 64-bit
  11. Writing library                          : libebml v1.4.2 + libmatroska v1.6.4
  12.  
  13. Video
  14. ID                                       : 1
  15. Format                                   : AVC
  16. Format/Info                              : Advanced Video Codec
  17. Format profile                           : High@L4.1
  18. Format settings                          : CABAC / 5 Ref Frames
  19. Format settings, CABAC                   : Yes
  20. Format settings, Reference frames        : 5 frames
  21. Codec ID                                 : V_MPEG4/ISO/AVC
  22. Duration                                 : 2 h 40 min
  23. Bit rate                                 : 15.4 Mb/s
  24. Width                                    : 1 920 pixels
  25. Height                                   : 804 pixels
  26. Display aspect ratio                     : 2.40:1
  27. Frame rate mode                          : Constant
  28. Frame rate                               : 24.000 FPS
  29. Color space                              : YUV
  30. Chroma subsampling                       : 4:2:0
  31. Bit depth                                : 8 bits
  32. Scan type                                : Progressive
  33. Bits/(Pixel*Frame)                       : 0.417
  34. Stream size                              : 17.3 GiB (95%)
  35. Writing library                          : x264 core 161 r3048+53M t_mod ~~~~~~~ Just us ~ JigSaw & droops16 ~
  36. Encoding settings                        : cabac=1 / ref=5 / deblock=1:-3:-3 / analyse=0x3:0x133 / me=umh / subme=10 / psy=1 / fade_compensate=0.00 / psy_rd=1.00:0.00 / mixed_ref=1 / me_range=32 / chroma_me=1 / trellis=2 / 8x8dct=1 / cqm=0 / deadzone=21,11 / fast_pskip=0 / chroma_qp_offset=-2 / threads=12 / lookahead_threads=2 / sliced_threads=0 / nr=0 / decimate=0 / interlaced=0 / bluray_compat=0 / constrained_intra=0 / fgo=0 / bframes=9 / b_pyramid=2 / b_adapt=2 / b_bias=0 / direct=3 / weightb=1 / open_gop=0 / weightp=2 / keyint=250 / keyint_min=24 / scenecut=40 / intra_refresh=0 / rc=crf / mbtree=0 / crf=14.8000 / qcomp=0.60 / qpmin=0:0:0 / qpmax=69:69:69 / qpstep=4 / ip_ratio=1.30 / pb_ratio=1.20 / aq=3:0.85 / aq-sensitivity=10.00 / aq-factor=1.00:1.00:1.00 / aq2=0 / aq3=0
  37. Default                                  : Yes
  38. Forced                                   : No
  39.  
  40. Audio #1
  41. ID                                       : 2
  42. Format                                   : AC-3
  43. Format/Info                              : Audio Coding 3
  44. Commercial name                          : Dolby Digital
  45. Codec ID                                 : A_AC3
  46. Duration                                 : 2 h 40 min
  47. Bit rate mode                            : Constant
  48. Bit rate                                 : 640 kb/s
  49. Channel(s)                               : 6 channels
  50. Channel layout                           : L R C LFE Ls Rs
  51. Sampling rate                            : 48.0 kHz
  52. Frame rate                               : 31.250 FPS (1536 SPF)
  53. Compression mode                         : Lossy
  54. Stream size                              : 735 MiB (4%)
  55. Language                                 : Hindi
  56. Service kind                             : Complete Main
  57. Default                                  : Yes
  58. Forced                                   : No
  59.  
  60. Audio #2
  61. ID                                       : 3
  62. Format                                   : AAC LC
  63. Format/Info                              : Advanced Audio Codec Low Complexity
  64. Codec ID                                 : A_AAC-2
  65. Duration                                 : 2 h 40 min
  66. Bit rate                                 : 102 kb/s
  67. Channel(s)                               : 2 channels
  68. Channel layout                           : L R
  69. Sampling rate                            : 48.0 kHz
  70. Frame rate                               : 46.875 FPS (1024 SPF)
  71. Compression mode                         : Lossy
  72. Stream size                              : 118 MiB (1%)
  73. Title                                    : Commentary by director Nitesh Tiwari
  74. Language                                 : English
  75. Default                                  : No
  76. Forced                                   : No
  77.  
  78. Text #1
  79. ID                                       : 4
  80. Format                                   : UTF-8
  81. Codec ID                                 : S_TEXT/UTF8
  82. Codec ID/Info                            : UTF-8 Plain Text
  83. Duration                                 : 2 h 33 min
  84. Bit rate                                 : 55 b/s
  85. Count of elements                        : 1947
  86. Stream size                              : 62.1 KiB (0%)
  87. Language                                 : English
  88. Default                                  : No
  89. Forced                                   : No
  90.  
  91. Text #2
  92. ID                                       : 5
  93. Format                                   : UTF-8
  94. Codec ID                                 : S_TEXT/UTF8
  95. Codec ID/Info                            : UTF-8 Plain Text
  96. Duration                                 : 2 h 34 min
  97. Bit rate                                 : 62 b/s
  98. Count of elements                        : 1969
  99. Stream size                              : 70.9 KiB (0%)
  100. Language                                 : Romanian
  101. Default                                  : No
  102. Forced                                   : No
  103.  
  104. Menu
  105. 00:00:00.000                             : :Chapter 01
  106. 00:21:41.083                             : :Chapter 02
  107. 00:43:30.875                             : :Chapter 03
  108. 01:04:03.333                             : :Chapter 04
  109. 01:26:58.042                             : :Chapter 05
  110. 01:43:30.958                             : :Chapter 06
  111. 02:03:07.292                             : :Chapter 07
  112. 02:22:58.083                             : :Chapter 08
  113.  
  114.  
RAW Paste Data