Advertisement
stillet-Megapeer

Untitled

Nov 30th, 2021
16
Never
Not a member of Pastebin yet? Sign Up, it unlocks many cool features!
  1. Общее
  2. Уникальный идентификатор : 187497932374924483989228805520950581963 (0x8D0EC9CA90CC31969E29AC60781C5ACB)
  3. Полное имя : Invisible.Sue.2018.720p.BluRay.DD.2.0.x264.MegaPeer.mkv
  4. Формат : Matroska
  5. Версия формата : Version 4
  6. Размер файла : 3,49 Гбайт
  7. Продолжительность : 1 ч. 35 м.
  8. Общий поток : 5 227 Кбит/сек
  9. Название фильма : Невидимка Сью / Invisible Sue (2018) от MegaPeer
  10. Дата кодирования : UTC 2021-11-30 15:32:01
  11. Программа кодирования : mkvmerge v15.0.0 ('Duel with the Devil') 64-bit
  12. Библиотека кодирования : libebml v1.3.5 + libmatroska v1.4.5
  13. Обложка : Yes
  14. Attachments : cover.jpg / cover.jpg
  15.  
  16. Видео
  17. Идентификатор : 1
  18. Формат : AVC
  19. Формат/Информация : Advanced Video Codec
  20. Профиль формата : High@L4.1
  21. Настройки формата : CABAC / 11 Ref Frames
  22. Параметр CABAC формата : Да
  23. Параметр RefFrames формата : 11 кадров
  24. Идентификатор кодека : V_MPEG4/ISO/AVC
  25. Продолжительность : 1 ч. 35 м.
  26. Битрейт : 4 400 Кбит/сек
  27. Ширина : 1 280 пикселей
  28. Высота : 532 пикселя
  29. Соотношение сторон : 2,40:1
  30. Режим частоты кадров : Постоянный
  31. Частота кадров : 24,000 кадра/сек
  32. Цветовое пространство : YUV
  33. Субдискретизация насыщенности : 4:2:0
  34. Битовая глубина : 8 бит
  35. Тип развёртки : Прогрессивная
  36. Бит/(Пиксели*Кадры) : 0.269
  37. Размер потока : 2,93 Гбайт (84%)
  38. Заголовок : stillet@MegaPeer
  39. Библиотека кодирования : x264 core 161 r3018 db0d417
  40. Настройки программы : cabac=1 / ref=11 / deblock=1:-3:-3 / analyse=0x3:0x113 / me=umh / subme=10 / psy=1 / psy_rd=1.00:0.00 / mixed_ref=1 / me_range=48 / chroma_me=1 / trellis=2 / 8x8dct=1 / cqm=0 / deadzone=21,11 / fast_pskip=0 / chroma_qp_offset=-2 / threads=17 / lookahead_threads=2 / sliced_threads=0 / nr=0 / decimate=0 / interlaced=0 / bluray_compat=0 / constrained_intra=0 / bframes=8 / b_pyramid=2 / b_adapt=2 / b_bias=0 / direct=3 / weightb=1 / open_gop=0 / weightp=2 / keyint=240 / keyint_min=24 / scenecut=40 / intra_refresh=0 / rc_lookahead=40 / rc=2pass / mbtree=0 / bitrate=4400 / ratetol=1.0 / qcomp=0.60 / qpmin=0 / qpmax=69 / qpstep=4 / cplxblur=20.0 / qblur=0.5 / vbv_maxrate=50000 / vbv_bufsize=62500 / nal_hrd=none / filler=0 / ip_ratio=1.40 / pb_ratio=1.30 / aq=1:1.10
  41. Язык : German
  42. Default : Да
  43. Forced : Нет
  44.  
  45. Аудио #1
  46. Идентификатор : 2
  47. Формат : AC-3
  48. Формат/Информация : Audio Coding 3
  49. Коммерческое название : Dolby Digital
  50. Идентификатор кодека : A_AC3
  51. Продолжительность : 1 ч. 35 м.
  52. Вид битрейта : Постоянный
  53. Битрейт : 192 Кбит/сек
  54. Каналы : 2 канала
  55. Channel layout : L R
  56. Частота : 48,0 КГц
  57. Частота кадров : 31,250 кадров/сек (1536 SPF)
  58. Метод сжатия : С потерями
  59. Размер потока : 131 Мбайт (4%)
  60. Заголовок : DUB | Back Board Cinema | IVI
  61. Язык : Russian
  62. Service kind : Complete Main
  63. Default : Да
  64. Forced : Нет
  65.  
  66. Аудио #2
  67. Идентификатор : 3
  68. Формат : AC-3
  69. Формат/Информация : Audio Coding 3
  70. Коммерческое название : Dolby Digital
  71. Идентификатор кодека : A_AC3
  72. Продолжительность : 1 ч. 35 м.
  73. Вид битрейта : Постоянный
  74. Битрейт : 640 Кбит/сек
  75. Каналы : 6 каналов
  76. Channel layout : L R C LFE Ls Rs
  77. Частота : 48,0 КГц
  78. Частота кадров : 31,250 кадров/сек (1536 SPF)
  79. Метод сжатия : С потерями
  80. Размер потока : 437 Мбайт (12%)
  81. Язык : German
  82. Service kind : Complete Main
  83. Default : Нет
  84. Forced : Нет
  85.  
  86. Текст
  87. Идентификатор : 4
  88. Формат : UTF-8
  89. Идентификатор кодека : S_TEXT/UTF8
  90. Идентификатор кодека/Информация : UTF-8 Plain Text
  91. Продолжительность : 1 ч. 29 м.
  92. Битрейт : 52 бит/сек
  93. Count of elements : 1093
  94. Размер потока : 34,3 Кбайт (0%)
  95. Заголовок : Full
  96. Язык : English
  97. Default : Нет
  98. Forced : Нет
  99.  
  100. Меню
  101. 00:00:00.000 : :ger: 01
  102. 00:12:01.000 : :ger: 02
  103. 00:24:01.000 : :ger: 03
  104. 00:35:45.000 : :ger: 04
  105. 00:47:32.000 : :ger: 05
  106. 01:00:48.000 : :ger: 06
  107. 01:11:24.000 : :ger: 07
  108. 01:21:35.000 : :ger: 08
  109. 01:31:43.000 : :ger: 09
  110.  
  111.  
Advertisement
Advertisement
Advertisement
RAW Paste Data Copied
Advertisement