Guest User

Untitled

a guest
Jul 16th, 2017
512
Never
Not a member of Pastebin yet? Sign Up, it unlocks many cool features!
  1. General
  2. Unique ID : 236334374691806347948437432754253844090 (0xB1CC584C114922D1844785D6F99BCE7A)
  3. Complete name : C:\Users\batti\Desktop\The.Boss.Baby.2017.3D.HSBS.BDRip.1080p.ExKinoRay.mkv
  4. Format : Matroska
  5. Format version : Version 4 / Version 2
  6. File size : 7.54 GiB
  7. Duration : 1 h 37 min
  8. Overall bit rate : 11.1 Mb/s
  9. Encoded date : UTC 2017-07-16 08:04:25
  10. Writing application : mkvmerge v13.0.0 ('The Juggler') 64bit
  11. Writing library : libebml v1.3.4 + libmatroska v1.4.5
  12.  
  13. Video
  14. ID : 1
  15. Format : AVC
  16. Format/Info : Advanced Video Codec
  17. Format profile : High@L4.1
  18. Format settings, CABAC : Yes
  19. Format settings, ReFrames : 4 frames
  20. Codec ID : V_MPEG4/ISO/AVC
  21. Duration : 1 h 37 min
  22. Bit rate : 9 177 kb/s
  23. Width : 1 920 pixels
  24. Height : 1 080 pixels
  25. Display aspect ratio : 16:9
  26. Frame rate mode : Constant
  27. Frame rate : 23.976 (24000/1001) FPS
  28. Color space : YUV
  29. Chroma subsampling : 4:2:0
  30. Bit depth : 8 bits
  31. Scan type : Progressive
  32. Bits/(Pixel*Frame) : 0.185
  33. Stream size : 6.25 GiB (83%)
  34. Writing library : x264 core 148 r2699+6+41 29a38aa Yuuki [8-bit@4:2:0 X86_64][GCC 5.3.0]
  35. Encoding settings : cabac=1 / ref=3 / deblock=1:-3:-3 / analyse=0x3:0x113 / me=umh / subme=11 / psy=1 / fade_compensate=0.00 / psy_rd=1.00:0.05 / mixed_ref=1 / me_range=48 / chroma_me=1 / trellis=2 / 8x8dct=1 / cqm=0 / deadzone=21,11 / fast_pskip=0 / chroma_qp_offset=-2 / threads=32 / lookahead_threads=5 / sliced_threads=0 / nr=0 / decimate=1 / interlaced=0 / bluray_compat=0 / constrained_intra=0 / fgo=0 / bframes=8 / b_pyramid=2 / b_adapt=2 / b_bias=0 / direct=3 / weightb=1 / open_gop=0 / weightp=2 / keyint=250 / keyint_min=23 / scenecut=40 / intra_refresh=0 / rc_lookahead=40 / rc=crf / mbtree=0 / crf=16.1000 / qcomp=0.60 / qpmin=0:0:0 / qpmax=69:69:69 / qpstep=4 / vbv_maxrate=50000 / vbv_bufsize=40000 / crf_max=0.0 / nal_hrd=none / filler=0 / ip_ratio=1.40 / pb_ratio=1.30 / aq=3:0.90
  36. Language : English
  37. Default : Yes
  38. Forced : No
  39.  
  40. Audio #1
  41. ID : 2
  42. Format : AC-3
  43. Format/Info : Audio Coding 3
  44. Format settings, Endianness : Big
  45. Codec ID : A_AC3
  46. Duration : 1 h 37 min
  47. Bit rate mode : Constant
  48. Bit rate : 384 kb/s
  49. Channel(s) : 6 channels
  50. Channel positions : Front: L C R, Side: L R, LFE
  51. Sampling rate : 48.0 kHz
  52. Frame rate : 31.250 FPS (1536 spf)
  53. Bit depth : 16 bits
  54. Compression mode : Lossy
  55. Stream size : 268 MiB (3%)
  56. Title : iTunes
  57. Language : Russian
  58. Service kind : Complete Main
  59. Default : Yes
  60. Forced : No
  61.  
  62. Audio #2
  63. ID : 3
  64. Format : DTS
  65. Format/Info : Digital Theater Systems
  66. Format profile : ES Matrix / Core
  67. Mode : 16
  68. Format settings, Endianness : Big
  69. Codec ID : A_DTS
  70. Duration : 1 h 37 min
  71. Bit rate mode : Constant
  72. Bit rate : 1 509 kb/s
  73. Channel(s) : 7 channels / 6 channels
  74. Channel positions : Front: L C R, Side: L R, Back: C, LFE / Front: L C R, Side: L R, LFE
  75. Sampling rate : 48.0 kHz
  76. Frame rate : 93.750 FPS (512 spf)
  77. Bit depth : 24 bits
  78. Compression mode : Lossy
  79. Stream size : 1.03 GiB (14%)
  80. Title : Original
  81. Language : English
  82. Default : No
  83. Forced : No
  84.  
  85. Text #1
  86. ID : 4
  87. Format : UTF-8
  88. Codec ID : S_TEXT/UTF8
  89. Codec ID/Info : UTF-8 Plain Text
  90. Duration : 1 h 19 min
  91. Bit rate : 0 b/s
  92. Count of elements : 21
  93. Stream size : 437 Bytes (0%)
  94. Title : Forced
  95. Language : Russian
  96. Default : Yes
  97. Forced : No
  98.  
  99. Text #2
  100. ID : 5
  101. Format : UTF-8
  102. Codec ID : S_TEXT/UTF8
  103. Codec ID/Info : UTF-8 Plain Text
  104. Duration : 1 h 36 min
  105. Bit rate : 93 b/s
  106. Count of elements : 1587
  107. Stream size : 65.9 KiB (0%)
  108. Title : Full
  109. Language : Russian
  110. Default : No
  111. Forced : No
  112.  
  113. Text #3
  114. ID : 6
  115. Format : UTF-8
  116. Codec ID : S_TEXT/UTF8
  117. Codec ID/Info : UTF-8 Plain Text
  118. Duration : 1 h 36 min
  119. Bit rate : 59 b/s
  120. Count of elements : 1568
  121. Stream size : 42.1 KiB (0%)
  122. Title : Full
  123. Language : English
  124. Default : No
  125. Forced : No
  126.  
  127. Menu
  128. 00:00:00.000 : en:00:00:00.000
  129. 00:03:45.892 : en:00:03:45.892
  130. 00:08:58.288 : en:00:08:58.288
  131. 00:11:45.914 : en:00:11:45.914
  132. 00:14:59.565 : en:00:14:59.565
  133. 00:19:38.219 : en:00:19:38.219
  134. 00:22:52.788 : en:00:22:52.788
  135. 00:28:27.247 : en:00:28:27.247
  136. 00:30:26.116 : en:00:30:26.116
  137. 00:33:45.482 : en:00:33:45.482
  138. 00:36:57.257 : en:00:36:57.257
  139. 00:39:18.356 : en:00:39:18.356
  140. 00:42:35.344 : en:00:42:35.344
  141. 00:46:20.611 : en:00:46:20.611
  142. 00:51:37.720 : en:00:51:37.720
  143. 00:53:25.285 : en:00:53:25.285
  144. 00:56:28.719 : en:00:56:28.719
  145. 00:59:35.405 : en:00:59:35.405
  146. 01:04:03.173 : en:01:04:03.173
  147. 01:08:15.758 : en:01:08:15.758
  148. 01:11:29.911 : en:01:11:29.911
  149. 01:16:25.247 : en:01:16:25.247
  150. 01:23:10.110 : en:01:23:10.110
  151. 01:27:36.960 : en:01:27:36.960
RAW Paste Data