hchcsen

How Heavy Are the Dumbbells You Lift

Jan 19th, 2022 (edited)
168
Never
Not a member of Pastebin yet? Sign Up, it unlocks many cool features!
  1. General
  2. Unique ID : 209088110717582792653283142149822847942 (0x9D4CE7C4AA7D67C1CEA101AD04359BC6)
  3. Complete name : X:\TV Serier (Mazinger Z)\How Heavy Are the Dumbbells You Lift\How Heavy Are the Dumbbells You Lift S01E01 Why Don't You Try Strength Training v2.mkv
  4. Format : Matroska
  5. Format version : Version 4 / Version 2
  6. File size : 2.49 GiB
  7. Duration : 23 min 40 s
  8. Overall bit rate mode : Variable
  9. Overall bit rate : 15.0 Mb/s
  10. Encoded date : UTC 2022-01-22 14:55:31
  11. Writing application : mkvmerge v62.0.0 ('Apollo') 64-bit
  12. Writing library : libebml v1.4.2 + libmatroska v1.6.4
  13. Attachments : 3PROT_.TTF / A-OTF-KanteiryuStd-Ultra.otf / a_citynovalt_i.ttf / Accolade-Bold.otf / ACKIDENT.TTF / ag-book-rounded-regular-30669.ttf / Airstrike.ttf / arbli_.ttf / arial.ttf / ARIALNB_0.TTF / ArialRoundedMTStd-ExtraBold.otf / ArnoPro-Caption.otf / bahnschrift.ttf / bahnschrift_0.ttf / BAOLOC-BOLD-ITALIC.TTF / Big_Bimbo_NC_Regular.ttf / BIGBIMBONC.TTF / BRITANIC.TTF / BRUSH-HYOUKA.TTF / BRUSHCUT.TTF / Brushie Brushie.otf / BrushStrokes-Heavy ModByArmonth.ttf / Bubblegum.ttf / BURBINCASUALNC.TTF / CARATSTD-UB.OTF / ChalkDust.ttf / Coluna.otf / comicbd.ttf / corbel.ttf / corbelb_0.ttf / DFFUUN-W12-WING-RKSJ-H.TTF / DSSnowfall.ttf / FayesMousewriting.TTF / Felt_Regular.ttf / Fighting Spirit 2.ttf / Fontin_Sans_R.otf / FOT Rodin Pro EB.ttf / FOT Rodin Pro UB.ttf / FOT-Humming Std E.ttf / FOTRODINPROUB.TTF / FOTSEURATPRONSTRP-EXTRABOLD.OTF / Frosty's Winterland.ttf / Full-Dece-Sans-1.0.ttf / GILSANUB.TTF / GOURMET.otf / Hand Of Sean Pro.otf / HATTEN.TTF / HTOWERT.TTF / impact.ttf / INTERSTATE-BLACK.TTF / IwaGyoPro-Bd-Kami.ttf / IWAOMINPRO-BD.OTF / IwaOMinPro-Hv-Fate.ttf / IWAOMINPRO-HV.TTF / IwaRGoPro-Db-Toaru.ttf / KGChasingPavements.ttf / Lato-Bol.ttf / Lato-Bold.ttf / Lato-BoldItalic.ttf / Lato-Reg.ttf / LatoWeb-Italic.ttf / lbrite.ttf / LSANSD.TTF / LT_0.ttf / manga_speak.ttf / mangatb.ttf / MPLUSRounded1c-Regular.ttf / MYRIADPRO-BOLD.OTF / MYRIADPRO-BOLDIT.OTF / NEATCHALK.TTF / OtsutomeFont_Ver3.ttf / ProtoSans15.otf / Sarnowski Sans Serif.ttf / tt0818m.ttf / WCRHESUSBBTA.OTF
  14.  
  15. Video
  16. ID : 1
  17. Format : AVC
  18. Format/Info : Advanced Video Codec
  19. Format profile : High@L4.1
  20. Format settings : CABAC / 4 Ref Frames
  21. Format settings, CABAC : Yes
  22. Format settings, Reference fra : 4 frames
  23. Codec ID : V_MPEG4/ISO/AVC
  24. Duration : 23 min 40 s
  25. Bit rate : 12.4 Mb/s
  26. Width : 1 920 pixels
  27. Height : 1 080 pixels
  28. Display aspect ratio : 16:9
  29. Frame rate mode : Constant
  30. Frame rate : 23.976 (24000/1001) FPS
  31. Color space : YUV
  32. Chroma subsampling : 4:2:0
  33. Bit depth : 8 bits
  34. Scan type : Progressive
  35. Bits/(Pixel*Frame) : 0.249
  36. Stream size : 2.05 GiB (83%)
  37. Title : UCCUSS
  38. Writing library : x264 core 157 r2935 545de2f
  39. Encoding settings : cabac=1 / ref=4 / deblock=1:-1:-1 / analyse=0x3:0x133 / me=umh / subme=9 / psy=1 / psy_rd=0.85:0.00 / mixed_ref=1 / me_range=32 / chroma_me=1 / trellis=2 / 8x8dct=1 / cqm=0 / deadzone=21,11 / fast_pskip=1 / chroma_qp_offset=-4 / threads=4 / lookahead_threads=1 / sliced_threads=0 / nr=0 / decimate=0 / interlaced=0 / bluray_compat=0 / constrained_intra=0 / bframes=5 / b_pyramid=2 / b_adapt=2 / b_bias=0 / direct=2 / weightb=1 / open_gop=0 / weightp=2 / keyint=230 / keyint_min=23 / scenecut=40 / intra_refresh=0 / rc_lookahead=50 / rc=crf / mbtree=1 / crf=15.0 / qcomp=0.70 / qpmin=10 / qpmax=42 / qpstep=4 / vbv_maxrate=50000 / vbv_bufsize=50000 / crf_max=0.0 / nal_hrd=none / filler=0 / ip_ratio=1.40 / aq=1:0.90
  40. Language : Japanese
  41. Default : Yes
  42. Forced : No
  43.  
  44. Audio #1
  45. ID : 2
  46. Format : FLAC
  47. Format/Info : Free Lossless Audio Codec
  48. Codec ID : A_FLAC
  49. Duration : 23 min 40 s
  50. Bit rate mode : Variable
  51. Bit rate : 755 kb/s
  52. Channel(s) : 2 channels
  53. Channel layout : L R
  54. Sampling rate : 48.0 kHz
  55. Frame rate : 11.719 FPS (4096 SPF)
  56. Bit depth : 16 bits
  57. Compression mode : Lossless
  58. Stream size : 128 MiB (5%)
  59. Title : Japanese
  60. Writing library : libFLAC 1.3.2 (UTC 2017-01-01)
  61. Language : Japanese
  62. Default : Yes
  63. Forced : No
  64.  
  65. Audio #2
  66. ID : 3
  67. Format : FLAC
  68. Format/Info : Free Lossless Audio Codec
  69. Codec ID : A_FLAC
  70. Duration : 23 min 40 s
  71. Bit rate mode : Variable
  72. Bit rate : 1 574 kb/s
  73. Channel(s) : 6 channels
  74. Channel layout : L R C LFE Ls Rs
  75. Sampling rate : 48.0 kHz
  76. Frame rate : 11.719 FPS (4096 SPF)
  77. Bit depth : 24 bits
  78. Detected bit depth : 20 bits
  79. Compression mode : Lossless
  80. Stream size : 267 MiB (10%)
  81. Writing library : libFLAC 1.2.1 (UTC 2007-09-17)
  82. Language : English
  83. Default : No
  84. Forced : No
  85.  
  86. Text #1
  87. ID : 6
  88. Format : ASS
  89. Codec ID : S_TEXT/ASS
  90. Codec ID/Info : Advanced Sub Station Alpha
  91. Duration : 23 min 35 s
  92. Bit rate : 19.4 kb/s
  93. Count of elements : 8853
  94. Compression mode : Lossless
  95. Stream size : 3.27 MiB (0%)
  96. Language : English
  97. Default : Yes
  98. Forced : No
  99.  
  100. Text #2
  101. ID : 7
  102. Format : ASS
  103. Codec ID : S_TEXT/ASS
  104. Codec ID/Info : Advanced Sub Station Alpha
  105. Duration : 22 min 55 s
  106. Bit rate : 19.8 kb/s
  107. Count of elements : 8447
  108. Compression mode : Lossless
  109. Stream size : 3.25 MiB (0%)
  110. Language : Multiple languages
  111. Default : No
  112. Forced : Yes
  113.  
  114. Menu
  115. 00:00:00.000 : en:Intro
  116. 00:01:31.009 : en:OP
  117. 00:03:00.932 : en:Part A
  118. 00:15:55.873 : en:Part B
  119. 00:21:16.944 : en:ED
  120. 00:22:46.992 : en:Workout Review
  121.  
  122.  
RAW Paste Data Copied