SHARE
TWEET

[Commie] Koi wa Ameagari no You ni - 03 [CA91F5A4].mkv

a guest Feb 4th, 2018 15 Never
Not a member of Pastebin yet? Sign Up, it unlocks many cool features!
  1. General
  2. Unique ID                                : 244058118461067982033891299867291625201 (0xB79BE244177D9AF77555200AC2E926F1)
  3. Format                                   : Matroska
  4. Format version                           : Version 4 / Version 2
  5. File size                                : 344 MiB
  6. Duration                                 : 22 min 54 s
  7. Overall bit rate                         : 2 098 kb/s
  8. Encoded date                             : UTC 2018-01-25 22:00:56
  9. Writing application                      : mkvmerge v20.0.0 ('I Am The Sun') 64-bit
  10. Writing library                          : libebml v1.3.5 + libmatroska v1.4.8
  11. Attachments                              : FONTIN_SANS_0.OTF / FONTIN_SANS_BI_0.OTF / iskpota.ttf / JennaSue.ttf / Lato-Reg.ttf / ArialRoundedMTStd-ExtraBold.otf / ARLRDBD.TTF / CrayonHand-Bold_0.ttf
  12.  
  13. Video
  14. ID                                       : 1
  15. Format                                   : AVC
  16. Format/Info                              : Advanced Video Codec
  17. Format profile                           : High 10@L5
  18. Format settings, CABAC                   : Yes
  19. Format settings, ReFrames                : 16 frames
  20. Codec ID                                 : V_MPEG4/ISO/AVC
  21. Duration                                 : 22 min 54 s
  22. Bit rate                                 : 1 860 kb/s
  23. Width                                    : 1 280 pixels
  24. Height                                   : 720 pixels
  25. Display aspect ratio                     : 16:9
  26. Frame rate mode                          : Constant
  27. Frame rate                               : 23.976 (24000/1001) FPS
  28. Color space                              : YUV
  29. Chroma subsampling                       : 4:2:0
  30. Bit depth                                : 10 bits
  31. Scan type                                : Progressive
  32. Bits/(Pixel*Frame)                       : 0.084
  33. Stream size                              : 305 MiB (89%)
  34. Writing library                          : x264 core 155 r2867+74 66b5600 t_mod_Custom_2 [10-bit@all X86_64]
  35. Encoding settings                        : cabac=1 / ref=16 / deblock=1:0:0 / analyse=0x3:0x133 / me=umh / subme=10 / psy=1 / fade_compensate=0.70 / psy_rd=0.60:0.15 / mixed_ref=1 / me_range=24 / chroma_me=1 / trellis=2 / 8x8dct=1 / cqm=0 / deadzone=21,11 / fast_pskip=1 / chroma_qp_offset=-3 / threads=12 / lookahead_threads=3 / sliced_threads=0 / nr=0 / decimate=1 / interlaced=0 / bluray_compat=0 / constrained_intra=0 / fgo=0 / bframes=10 / b_pyramid=2 / b_adapt=2 / b_bias=0 / direct=3 / weightb=1 / open_gop=0 / weightp=2 / keyint=250 / keyint_min=23 / scenecut=40 / intra_refresh=0 / rc_lookahead=60 / rc=crf / mbtree=1 / crf=18.0000 / qcomp=0.70 / qpmin=0:0:0 / qpmax=81:81:81 / qpstep=4 / ip_ratio=1.40 / aq=3:0.80 / aq-sensitivity=10.00 / aq-factor=1.00:1.00:1.00 / aq2=0 / aq3=0
  36. Language                                 : English
  37. Default                                  : Yes
  38. Forced                                   : No
  39.  
  40. Audio
  41. ID                                       : 2
  42. Format                                   : E-AC-3
  43. Format/Info                              : Enhanced Audio Coding 3
  44. Format settings, Endianness              : Big
  45. Codec ID                                 : A_EAC3
  46. Duration                                 : 22 min 54 s
  47. Bit rate mode                            : Constant
  48. Bit rate                                 : 224 kb/s
  49. Channel(s)                               : 2 channels
  50. Channel positions                        : Front: L R
  51. Sampling rate                            : 48.0 kHz
  52. Frame rate                               : 187.500 FPS (256 spf)
  53. Compression mode                         : Lossy
  54. Stream size                              : 36.7 MiB (11%)
  55. Language                                 : Japanese
  56. Service kind                             : Complete Main
  57. Default                                  : Yes
  58. Forced                                   : No
  59.  
  60. Text
  61. ID                                       : 3
  62. Format                                   : ASS
  63. Codec ID                                 : S_TEXT/ASS
  64. Codec ID/Info                            : Advanced Sub Station Alpha
  65. Duration                                 : 22 min 44 s
  66. Bit rate                                 : 199 b/s
  67. Count of elements                        : 438
  68. Compression mode                         : Lossless
  69. Stream size                              : 33.3 KiB (0%)
  70. Language                                 : English
  71. Default                                  : Yes
  72. Forced                                   : No
  73.  
  74. Menu
  75. 00:00:00.033                             : en:Intro
  76. 00:01:01.950                             : en:OP
  77. 00:02:31.880                             : en:Part A
  78. 00:10:49.830                             : en:Part B
  79. 00:21:24.840                             : en:ED
RAW Paste Data
We use cookies for various purposes including analytics. By continuing to use Pastebin, you agree to our use of cookies as described in the Cookies Policy. OK, I Understand
Top