Guest User

Untitled

a guest
Jul 18th, 2021
24
Never
Not a member of Pastebin yet? Sign Up, it unlocks many cool features!
  1. General
  2. Unique ID : 165093065739339962205870451050292063772 (0x7C33C4948EBC7F27844D54F41A5A2E1C)
  3. Complete name : G:\Video\Trading.Paint.2019.BDREMUX.1080p.seleZen.mkv
  4. Format : Matroska
  5. Format version : Version 4
  6. File size : 19.9 GiB
  7. Duration : 1 h 27 min
  8. Overall bit rate mode : Variable
  9. Overall bit rate : 32.6 Mb/s
  10. Movie name : Trading Paint 2019 from seleZen
  11. Encoded date : UTC 2021-07-19 01:17:54
  12. Writing application : mkvmerge v53.0.0 ('Fool's Gold') 64-bit
  13. Writing library : libebml v1.4.1 + libmatroska v1.6.2
  14.  
  15. Video
  16. ID : 1
  17. Format : AVC
  18. Format/Info : Advanced Video Codec
  19. Format profile : High@L4.1
  20. Format settings : CABAC / 4 Ref Frames
  21. Format settings, CABAC : Yes
  22. Format settings, Reference : 4 frames
  23. Codec ID : V_MPEG4/ISO/AVC
  24. Duration : 1 h 27 min
  25. Bit rate mode : Variable
  26. Bit rate : 28.4 Mb/s
  27. Maximum bit rate : 37.0 Mb/s
  28. Width : 1 920 pixels
  29. Height : 1 080 pixels
  30. Display aspect ratio : 16:9
  31. Frame rate mode : Constant
  32. Frame rate : 23.976 (24000/1001) FPS
  33. Color space : YUV
  34. Chroma subsampling : 4:2:0
  35. Bit depth : 8 bits
  36. Scan type : Progressive
  37. Bits/(Pixel*Frame) : 0.572
  38. Stream size : 17.3 GiB (87%)
  39. Language : English
  40. Default : Yes
  41. Forced : No
  42.  
  43. Audio #1
  44. ID : 2
  45. Format : AC-3
  46. Format/Info : Audio Coding 3
  47. Commercial name : Dolby Digital
  48. Codec ID : A_AC3
  49. Duration : 1 h 27 min
  50. Bit rate mode : Constant
  51. Bit rate : 384 kb/s
  52. Channel(s) : 6 channels
  53. Channel layout : L R C LFE Ls Rs
  54. Sampling rate : 48.0 kHz
  55. Frame rate : 31.250 FPS (1536 SPF)
  56. Compression mode : Lossy
  57. Stream size : 240 MiB (1%)
  58. Title : iTunes
  59. Language : Russian
  60. Service kind : Complete Main
  61. Default : Yes
  62. Forced : Yes
  63.  
  64. Audio #2
  65. ID : 3
  66. Format : DTS XLL
  67. Format/Info : Digital Theater Systems
  68. Commercial name : DTS-HD Master Audio
  69. Codec ID : A_DTS
  70. Duration : 1 h 27 min
  71. Bit rate mode : Variable
  72. Bit rate : 3 833 kb/s
  73. Channel(s) : 6 channels
  74. Channel layout : C L R Ls Rs LFE
  75. Sampling rate : 48.0 kHz
  76. Frame rate : 93.750 FPS (512 SPF)
  77. Bit depth : 24 bits
  78. Compression mode : Lossless
  79. Stream size : 2.34 GiB (12%)
  80. Title : Original
  81. Language : English
  82. Default : No
  83. Forced : No
  84.  
  85. Text
  86. ID : 4
  87. Format : UTF-8
  88. Codec ID : S_TEXT/UTF8
  89. Codec ID/Info : UTF-8 Plain Text
  90. Duration : 1 h 24 min
  91. Bit rate : 68 b/s
  92. Count of elements : 1085
  93. Stream size : 42.3 KiB (0%)
  94. Title : Full
  95. Language : English
  96. Default : No
  97. Forced : No
  98.  
  99. Menu
  100. 00:00:00.000 : en:Chapter 1
  101. 00:06:09.410 : en:Chapter 2
  102. 00:09:57.179 : en:Chapter 3
  103. 00:15:44.026 : en:Chapter 4
  104. 00:20:36.610 : en:Chapter 5
  105. 00:26:46.563 : en:Chapter 6
  106. 00:33:00.645 : en:Chapter 7
  107. 00:38:24.885 : en:Chapter 8
  108. 00:42:32.007 : en:Chapter 9
  109. 00:45:46.034 : en:Chapter 10
  110. 00:49:54.950 : en:Chapter 11
  111. 00:55:05.593 : en:Chapter 12
  112. 01:00:53.107 : en:Chapter 13
  113. 01:04:55.933 : en:Chapter 14
  114. 01:08:54.338 : en:Chapter 15
  115. 01:12:28.302 : en:Chapter 16
  116.  
  117.  
RAW Paste Data