GrabHD

Untitled

Feb 19th, 2020
80
Never
Not a member of Pastebin yet? Sign Up, it unlocks many cool features!
  1. General
  2. Unique ID : 54797607471935323293210770905885567866 (0x2939A2A3BF83D3B5EEAAAD31C69FEB7A)
  3. Complete name : E:Video111Knives.Out.2019.D.MVO.AVO.BDREMUX.2160p.HDR.seleZen.mkv
  4. Format : Matroska
  5. Format version : Version 4
  6. File size : 59.2 GiB
  7. Duration : 2 h 10 min
  8. Overall bit rate mode : Variable
  9. Overall bit rate : 65.1 Mb/s
  10. Movie name : Knives Out 2019 from селезень
  11. Encoded date : UTC 2020-02-19 20:01:33
  12. Writing application : mkvmerge v40.0.0 ('Old Town Road + Pony') 64-bit
  13. Writing library : libebml v1.3.9 + libmatroska v1.5.2
  14.  
  15. Video
  16. ID : 1
  17. Format : HEVC
  18. Format/Info : High Efficiency Video Coding
  19. Format profile : Main 10@L5.1@High
  20. HDR format : SMPTE ST 2086, HDR10 compatible
  21. Codec ID : V_MPEGH/ISO/HEVC
  22. Duration : 2 h 10 min
  23. Bit rate : 55.5 Mb/s
  24. Width : 3 840 pixels
  25. Height : 2 160 pixels
  26. Display aspect ratio : 16:9
  27. Frame rate mode : Constant
  28. Frame rate : 23.976 (24000/1001) FPS
  29. Color space : YUV
  30. Chroma subsampling : 4:2:0 (Type 2)
  31. Bit depth : 10 bits
  32. Bits/(Pixel*Frame) : 0.279
  33. Stream size : 50.5 GiB (85%)
  34. Language : English
  35. Default : Yes
  36. Forced : No
  37. Color range : Limited
  38. Color primaries : BT.2020
  39. Transfer characteristics : PQ
  40. Matrix coefficients : BT.2020 non-constant
  41. Mastering display color pri : BT.2020
  42. Mastering display luminance : min: 0.0001 cd/m2, max: 1000 cd/m2
  43. Maximum Content Light Level : 267 cd/m2
  44. Maximum Frame-Average Light : 89 cd/m2
  45.  
  46. Audio #1
  47. ID : 2
  48. Format : AC-3
  49. Format/Info : Audio Coding 3
  50. Commercial name : Dolby Digital
  51. Codec ID : A_AC3
  52. Duration : 2 h 10 min
  53. Bit rate mode : Constant
  54. Bit rate : 384 kb/s
  55. Channel(s) : 6 channels
  56. Channel layout : L R C LFE Ls Rs
  57. Sampling rate : 48.0 kHz
  58. Frame rate : 31.250 FPS (1536 SPF)
  59. Compression mode : Lossy
  60. Stream size : 358 MiB (1%)
  61. Title : iTunes
  62. Language : Russian
  63. Service kind : Complete Main
  64. Default : Yes
  65. Forced : Yes
  66.  
  67. Audio #2
  68. ID : 3
  69. Format : AC-3
  70. Format/Info : Audio Coding 3
  71. Commercial name : Dolby Digital
  72. Codec ID : A_AC3
  73. Duration : 2 h 10 min
  74. Bit rate mode : Constant
  75. Bit rate : 448 kb/s
  76. Channel(s) : 6 channels
  77. Channel layout : L R C LFE Ls Rs
  78. Sampling rate : 48.0 kHz
  79. Frame rate : 31.250 FPS (1536 SPF)
  80. Compression mode : Lossy
  81. Stream size : 417 MiB (1%)
  82. Title : MVO [HDRezka Studio]
  83. Language : Russian
  84. Service kind : Complete Main
  85. Default : No
  86. Forced : No
  87.  
  88. Audio #3
  89. ID : 4
  90. Format : AC-3
  91. Format/Info : Audio Coding 3
  92. Commercial name : Dolby Digital
  93. Codec ID : A_AC3
  94. Duration : 2 h 10 min
  95. Bit rate mode : Constant
  96. Bit rate : 640 kb/s
  97. Channel(s) : 6 channels
  98. Channel layout : L R C LFE Ls Rs
  99. Sampling rate : 48.0 kHz
  100. Frame rate : 31.250 FPS (1536 SPF)
  101. Compression mode : Lossy
  102. Stream size : 596 MiB (1%)
  103. Title : AVO [Kyberpunk]
  104. Language : Russian
  105. Service kind : Complete Main
  106. Default : No
  107. Forced : No
  108.  
  109. Audio #4
  110. ID : 5
  111. Format : DTS XLL
  112. Format/Info : Digital Theater Systems
  113. Commercial name : DTS-HD Master Audio
  114. Codec ID : A_DTS
  115. Duration : 2 h 10 min
  116. Bit rate mode : Variable
  117. Bit rate : 4 826 kb/s
  118. Channel(s) : 8 channels
  119. Channel layout : C L R LFE Lb Rb Lss Rss
  120. Sampling rate : 48.0 kHz
  121. Frame rate : 93.750 FPS (512 SPF)
  122. Bit depth : 24 bits
  123. Compression mode : Lossless
  124. Stream size : 4.39 GiB (7%)
  125. Title : AVO [Kyberpunk]
  126. Language : Russian
  127. Default : No
  128. Forced : No
  129.  
  130. Audio #5
  131. ID : 6
  132. Format : MLP FBA 16-ch
  133. Format/Info : Meridian Lossless Packing FBA with 16-channel presentation
  134. Commercial name : Dolby TrueHD with Dolby Atmos
  135. Codec ID : A_TRUEHD
  136. Duration : 2 h 10 min
  137. Bit rate mode : Variable
  138. Bit rate : 2 585 kb/s
  139. Maximum bit rate : 3 012 kb/s
  140. Channel(s) : 8 channels
  141. Channel layout : L R C LFE Ls Rs Lb Rb
  142. Sampling rate : 48.0 kHz
  143. Frame rate : 1 200.000 FPS (40 SPF)
  144. Compression mode : Lossless
  145. Stream size : 2.35 GiB (4%)
  146. Title : Original
  147. Language : English
  148. Default : No
  149. Forced : No
  150. Number of dynamic objects : 11
  151. Bed channel count : 1 channel
  152. Bed channel configuration : LFE
  153.  
  154. Audio #6
  155. ID : 7
  156. Format : AC-3
  157. Format/Info : Audio Coding 3
  158. Commercial name : Dolby Digital
  159. Codec ID : A_AC3
  160. Duration : 2 h 10 min
  161. Bit rate mode : Constant
  162. Bit rate : 640 kb/s
  163. Channel(s) : 6 channels
  164. Channel layout : L R C LFE Ls Rs
  165. Sampling rate : 48.0 kHz
  166. Frame rate : 31.250 FPS (1536 SPF)
  167. Compression mode : Lossy
  168. Stream size : 596 MiB (1%)
  169. Language : English
  170. Service kind : Complete Main
  171. Default : No
  172. Forced : No
  173.  
  174. Text #1
  175. ID : 8
  176. Format : UTF-8
  177. Codec ID : S_TEXT/UTF8
  178. Codec ID/Info : UTF-8 Plain Text
  179. Duration : 2 h 4 min
  180. Bit rate : 1 b/s
  181. Count of elements : 38
  182. Stream size : 1.69 KiB (0%)
  183. Title : Forced
  184. Language : Russian
  185. Default : Yes
  186. Forced : Yes
  187.  
  188. Text #2
  189. ID : 9
  190. Format : UTF-8
  191. Codec ID : S_TEXT/UTF8
  192. Codec ID/Info : UTF-8 Plain Text
  193. Duration : 2 h 4 min
  194. Bit rate : 126 b/s
  195. Count of elements : 1841
  196. Stream size : 115 KiB (0%)
  197. Title : Full
  198. Language : Russian
  199. Default : No
  200. Forced : No
  201.  
  202. Text #3
  203. ID : 10
  204. Format : UTF-8
  205. Codec ID : S_TEXT/UTF8
  206. Codec ID/Info : UTF-8 Plain Text
  207. Duration : 2 h 2 min
  208. Bit rate : 85 b/s
  209. Count of elements : 2616
  210. Stream size : 76.2 KiB (0%)
  211. Title : Full
  212. Language : English
  213. Default : No
  214. Forced : No
  215.  
  216. Text #4
  217. ID : 11
  218. Format : UTF-8
  219. Codec ID : S_TEXT/UTF8
  220. Codec ID/Info : UTF-8 Plain Text
  221. Duration : 2 h 2 min
  222. Bit rate : 89 b/s
  223. Count of elements : 2795
  224. Stream size : 79.8 KiB (0%)
  225. Title : SDH
  226. Language : English
  227. Default : No
  228. Forced : No
  229.  
  230. Menu
  231. 00:00:00.000 : en:Chapter 1
  232. 00:05:28.036 : en:Chapter 2
  233. 00:21:23.115 : en:Chapter 3
  234. 00:31:48.698 : en:Chapter 4
  235. 00:44:30.960 : en:Chapter 5
  236. 00:49:52.364 : en:Chapter 6
  237. 00:54:53.582 : en:Chapter 7
  238. 00:58:39.766 : en:Chapter 8
  239. 01:07:09.776 : en:Chapter 9
  240. 01:12:43.943 : en:Chapter 10
  241. 01:22:30.279 : en:Chapter 11
  242. 01:28:49.741 : en:Chapter 12
  243. 01:34:44.429 : en:Chapter 13
  244. 01:40:47.458 : en:Chapter 14
  245. 01:43:43.634 : en:Chapter 15
  246. 02:01:45.131 : en:Chapter 16
RAW Paste Data