SHARE
TWEET

Untitled

a guest Sep 21st, 2019 127 Never
Not a member of Pastebin yet? Sign Up, it unlocks many cool features!
  1. General
  2. Unique ID : 332811181964572316831872168641078307120 (0xFA611A245B2015E28FFCD287DAD12930)
  3. Complete name : Njan.Prakashan.2018.1080p.NF.WEB-DL.DDP5.1.x264-DbS.mkv
  4. Format : Matroska
  5. Format version : Version 4
  6. File size : 5.87 GiB
  7. Duration : 2 h 5 min
  8. Overall bit rate mode : Variable
  9. Overall bit rate : 6 697 kb/s
  10. Encoded date : UTC 2019-09-10 08:23:05
  11. Writing application : mkvmerge v37.0.0 ('Leave It') 64-bit
  12. Writing library : libebml v1.3.9 + libmatroska v1.5.2
  13.  
  14. Video
  15. ID : 1
  16. Format : AVC
  17. Format/Info : Advanced Video Codec
  18. Format profile : Main@L4
  19. Format settings : CABAC / 3 Ref Frames
  20. Format settings, CABAC : Yes
  21. Format settings, Reference frames : 3 frames
  22. Codec ID : V_MPEG4/ISO/AVC
  23. Duration : 2 h 5 min
  24. Bit rate mode : Variable
  25. Bit rate : 6 190 kb/s
  26. Maximum bit rate : 9 285 kb/s
  27. Width : 1 920 pixels
  28. Height : 1 080 pixels
  29. Display aspect ratio : 16:9
  30. Frame rate mode : Constant
  31. Frame rate : 25.000 FPS
  32. Color space : YUV
  33. Chroma subsampling : 4:2:0
  34. Bit depth : 8 bits
  35. Scan type : Progressive
  36. Bits/(Pixel*Frame) : 0.119
  37. Stream size : 5.30 GiB (90%)
  38. Writing library : x264 core 148 r2715 7e75228
  39. Encoding settings : cabac=1 / ref=3 / deblock=1:0:0 / analyse=0x1:0x111 / me=umh / subme=10 / psy=1 / psy_rd=1.00:0.00 / mixed_ref=1 / me_range=24 / chroma_me=1 / trellis=2 / 8x8dct=0 / cqm=0 / deadzone=21,11 / fast_pskip=1 / chroma_qp_offset=-2 / threads=8 / lookahead_threads=1 / sliced_threads=0 / nr=0 / decimate=1 / interlaced=0 / bluray_compat=0 / stitchable=1 / constrained_intra=0 / bframes=2 / b_pyramid=0 / b_adapt=2 / b_bias=0 / direct=3 / weightb=1 / open_gop=0 / weightp=2 / keyint=50 / keyint_min=26 / scenecut=0 / intra_refresh=0 / rc_lookahead=50 / rc=2pass / mbtree=1 / bitrate=6190 / ratetol=1.0 / qcomp=0.50 / qpmin=6 / qpmax=51 / qpstep=4 / cplxblur=20.0 / qblur=0.5 / vbv_maxrate=9285 / vbv_bufsize=12380 / nal_hrd=vbr / filler=0 / ip_ratio=1.40 / aq=1:1.00
  40. Default : Yes
  41. Forced : No
  42.  
  43. Audio
  44. ID : 2
  45. Format : E-AC-3
  46. Format/Info : Enhanced AC-3
  47. Commercial name : Dolby Digital Plus
  48. Codec ID : A_EAC3
  49. Duration : 2 h 5 min
  50. Bit rate mode : Constant
  51. Bit rate : 640 kb/s
  52. Channel(s) : 6 channels
  53. Channel layout : L R C LFE Ls Rs
  54. Sampling rate : 48.0 kHz
  55. Frame rate : 31.250 FPS (1536 SPF)
  56. Compression mode : Lossy
  57. Stream size : 574 MiB (10%)
  58. Language : Malayalam
  59. Service kind : Complete Main
  60. Default : Yes
  61. Forced : No
  62.  
  63. Text #1
  64. ID : 3
  65. Format : UTF-8
  66. Codec ID : S_TEXT/UTF8
  67. Codec ID/Info : UTF-8 Plain Text
  68. Duration : 2 h 3 min
  69. Bit rate : 81 b/s
  70. Count of elements : 2108
  71. Stream size : 73.6 KiB (0%)
  72. Language : English
  73. Default : No
  74. Forced : No
  75.  
  76. Text #2
  77. ID : 4
  78. Format : UTF-8
  79. Codec ID : S_TEXT/UTF8
  80. Codec ID/Info : UTF-8 Plain Text
  81. Duration : 2 h 1 min
  82. Bit rate : 119 b/s
  83. Count of elements : 2200
  84. Stream size : 106 KiB (0%)
  85. Language : Arabic
  86. Default : No
  87. Forced : No
RAW Paste Data
We use cookies for various purposes including analytics. By continuing to use Pastebin, you agree to our use of cookies as described in the Cookies Policy. OK, I Understand
Not a member of Pastebin yet?
Sign Up, it unlocks many cool features!
 
Top