Advertisement
Henry_Kr

X-97

Mar 20th, 2024
112
0
Never
Not a member of Pastebin yet? Sign Up, it unlocks many cool features!
text 4.21 KB | None | 0 0
  1. Video
  2. ID : 1
  3. Format : AVC
  4. Format/Info : Advanced Video Codec
  5. Format profile : High@L4
  6. Format settings : CABAC / 4 Ref Frames
  7. Format settings, CABAC : Yes
  8. Format settings, Reference : 4 frames
  9. Codec ID : V_MPEG4/ISO/AVC
  10. Duration : 30 min 30 s
  11. Bit rate mode : Variable
  12. Bit rate : 7 343 kb/s
  13. Maximum bit rate : 12.7 Mb/s
  14. Width : 1 920 pixels
  15. Height : 1 080 pixels
  16. Display aspect ratio : 16:9
  17. Frame rate mode : Constant
  18. Frame rate : 24.000 FPS
  19. Color space : YUV
  20. Chroma subsampling : 4:2:0
  21. Bit depth : 8 bits
  22. Scan type : Progressive
  23. Bits/(Pixel*Frame) : 0.148
  24. Stream size : 1.56 GiB (88%)
  25. Title : X-Men.97.S01E01.1080p.DSNP.WEB.[CartoonNOW]
  26. Language : English
  27. Default : Yes
  28. Forced : No
  29. Color range : Limited
  30. Color primaries : BT.709
  31. Transfer characteristics : BT.709
  32. Matrix coefficients : BT.709
  33.  
  34. Audio #1
  35. ID : 2
  36. Format : E-AC-3
  37. Format/Info : Enhanced AC-3
  38. Commercial name : Dolby Digital Plus
  39. Codec ID : A_EAC3
  40. Duration : 30 min 30 s
  41. Bit rate mode : Constant
  42. Bit rate : 256 kb/s
  43. Channel(s) : 6 channels
  44. Channel layout : L R C LFE Ls Rs
  45. Sampling rate : 48.0 kHz
  46. Frame rate : 31.250 FPS (1536 SPF)
  47. Compression mode : Lossy
  48. Stream size : 55.9 MiB (3%)
  49. Title : E-AC3 5.1
  50. Language : Portuguese
  51. Service kind : Complete Main
  52. Default : Yes
  53. Forced : No
  54.  
  55. Audio #2
  56. ID : 3
  57. Format : E-AC-3 JOC
  58. Format/Info : Enhanced AC-3 with Joint Object Coding
  59. Commercial name : Dolby Digital Plus with Dolby Atmos
  60. Codec ID : A_EAC3
  61. Duration : 30 min 30 s
  62. Bit rate mode : Constant
  63. Bit rate : 768 kb/s
  64. Channel(s) : 6 channels
  65. Channel layout : L R C LFE Ls Rs
  66. Sampling rate : 48.0 kHz
  67. Frame rate : 31.250 FPS (1536 SPF)
  68. Compression mode : Lossy
  69. Stream size : 168 MiB (9%)
  70. Title : E-AC3 5.1
  71. Language : English
  72. Service kind : Complete Main
  73. Default : No
  74. Forced : No
  75. Complexity index : 16
  76. Number of dynamic objects : 15
  77. Bed channel count : 1 channel
  78. Bed channel configuration : LFE
  79.  
  80. Text #1
  81. ID : 4
  82. Format : UTF-8
  83. Codec ID : S_TEXT/UTF8
  84. Codec ID/Info : UTF-8 Plain Text
  85. Duration : 28 min 34 s
  86. Bit rate : 3 b/s
  87. Count of elements : 20
  88. Stream size : 700 Bytes (0%)
  89. Title : Forçada
  90. Language : Portuguese
  91. Default : No
  92. Forced : Yes
  93.  
  94. Text #2
  95. ID : 5
  96. Format : UTF-8
  97. Codec ID : S_TEXT/UTF8
  98. Codec ID/Info : UTF-8 Plain Text
  99. Duration : 30 min 3 s
  100. Bit rate : 78 b/s
  101. Count of elements : 429
  102. Stream size : 17.4 KiB (0%)
  103. Title : Completa
  104. Language : Portuguese
  105. Default : No
  106. Forced : No
  107.  
  108. Menu
  109. 00:00:04.000 : en:Intro Start
  110. 00:01:15.000 : en:Chapter 02
  111. 00:05:02.125 : en:Chapter 03
  112. 00:13:42.625 : en:Chapter 04
  113. 00:24:48.958 : en:Chapter 05
  114. 00:28:32.500 : en:Credits
Advertisement
Add Comment
Please, Sign In to add comment
Advertisement