Secasa

Untitled

Jul 18th, 2015
20
Never
Not a member of Pastebin yet? Sign Up, it unlocks many cool features!
  1. Format : Matroska
  2. Format version : Version 2
  3. File size : 3.47 GiB
  4. Duration : 1h 28mn
  5. Overall bit rate : 5 604 Kbps
  6. Encoded date : UTC 2015-07-17 09:06:12
  7. Writing application : mkvmerge v5.3.0 ('I could have danced') built on Feb 9 2012 10:38:07
  8. Writing library : libebml v1.2.3 + libmatroska v1.3.0
  9.  
  10. Video
  11. ID : 1
  12. Format : AVC
  13. Format/Info : Advanced Video Codec
  14. Format profile : High@L4.1
  15. Format settings, CABAC : Yes
  16. Format settings, ReFrames : 4 frames
  17. Codec ID : V_MPEG4/ISO/AVC
  18. Duration : 1h 28mn
  19. Bit rate : 4 800 Kbps
  20. Width : 1 920 pixels
  21. Height : 1 080 pixels
  22. Display aspect ratio : 16:9
  23. Frame rate mode : Constant
  24. Frame rate : 23.976 fps
  25. Color space : YUV
  26. Chroma subsampling : 4:2:0
  27. Bit depth : 8 bits
  28. Scan type : Progressive
  29. Bits/(Pixel*Frame) : 0.097
  30. Stream size : 2.84 GiB (82%)
  31. Writing library : x264 core 142 r2479 dd79a61
  32. Encoding settings : cabac=1 / ref=1 / deblock=1:-1:-1 / analyse=0x3:0x113 / me=hex / subme=2 / psy=1 / psy_rd=1.00:0.15 / mixed_ref=0 / me_range=16 / chroma_me=1 / trellis=0 / 8x8dct=1 / cqm=0 / deadzone=21,11 / fast_pskip=1 / chroma_qp_offset=0 / threads=12 / lookahead_threads=4 / sliced_threads=0 / nr=0 / decimate=1 / interlaced=0 / bluray_compat=0 / constrained_intra=0 / bframes=3 / b_pyramid=2 / b_adapt=1 / b_bias=0 / direct=1 / weightb=1 / open_gop=0 / weightp=1 / keyint=240 / keyint_min=24 / scenecut=40 / intra_refresh=0 / rc_lookahead=10 / rc=abr / mbtree=1 / bitrate=4800 / ratetol=1.0 / qcomp=0.60 / qpmin=0 / qpmax=69 / qpstep=4 / vbv_maxrate=62500 / vbv_bufsize=78125 / nal_hrd=none / filler=0 / ip_ratio=1.40 / aq=1:1.00
  33. Language : Spanish
  34. Default : Yes
  35. Forced : No
  36. Color range : Limited
  37. Color primaries : BT.709
  38. Transfer characteristics : BT.709
  39. Matrix coefficients : BT.709
  40.  
  41. Audio #1
  42. ID : 2
  43. Format : AC-3
  44. Format/Info : Audio Coding 3
  45. Mode extension : CM (complete main)
  46. Format settings, Endianness : Big
  47. Codec ID : A_AC3
  48. Duration : 1h 28mn
  49. Bit rate mode : Constant
  50. Bit rate : 448 Kbps
  51. Channel(s) : 6 channels
  52. Channel positions : Front: L C R, Side: L R, LFE
  53. Sampling rate : 48.0 KHz
  54. Compression mode : Lossy
  55. Delay relative to video : -83ms
  56. Stream size : 284 MiB (8%)
  57. Language : Spanish
  58. Default : Yes
  59. Forced : No
  60.  
  61. Audio #2
  62. ID : 3
  63. Format : AC-3
  64. Format/Info : Audio Coding 3
  65. Mode extension : CM (complete main)
  66. Format settings, Endianness : Big
  67. Codec ID : A_AC3
  68. Duration : 1h 28mn
  69. Bit rate mode : Constant
  70. Bit rate : 448 Kbps
  71. Channel(s) : 6 channels
  72. Channel positions : Front: L C R, Side: L R, LFE
  73. Sampling rate : 48.0 KHz
  74. Compression mode : Lossy
  75. Delay relative to video : -83ms
  76. Stream size : 284 MiB (8%)
  77. Language : English
  78. Default : No
  79. Forced : No
RAW Paste Data