Advertisement
Henry_Kr

TB-S01

Aug 26th, 2021
616
0
Never
Not a member of Pastebin yet? Sign Up, it unlocks many cool features!
text 2.50 KB | None | 0 0
  1. Video
  2. ID : 1
  3. Format : AVC
  4. Format/Info : Advanced Video Codec
  5. Format profile : High@L4
  6. Format settings : CABAC / 4 Ref Frames
  7. Format settings, CABAC : Yes
  8. Format settings, Reference : 4 frames
  9. Muxing mode : Header stripping
  10. Codec ID : V_MPEG4/ISO/AVC
  11. Duration : 21 min 4 s
  12. Bit rate mode : Variable
  13. Bit rate : 8 069 kb/s
  14. Maximum bit rate : 12.4 Mb/s
  15. Width : 1 920 pixels
  16. Height : 1 080 pixels
  17. Display aspect ratio : 16:9
  18. Frame rate mode : Constant
  19. Frame rate : 23.976 (24000/1001) FPS
  20. Color space : YUV
  21. Chroma subsampling : 4:2:0
  22. Bit depth : 8 bits
  23. Scan type : Progressive
  24. Bits/(Pixel*Frame) : 0.162
  25. Stream size : 1.19 GiB (94%)
  26. Title : The.Batman.S01E02.Traição.1080p.HMAX.WEB.[CartoonNOW]
  27. Language : English
  28. Default : Yes
  29. Forced : No
  30. Color range : Limited
  31. Color primaries : BT.709
  32. Transfer characteristics : BT.709
  33. Matrix coefficients : BT.709
  34.  
  35. Audio
  36. ID : 2
  37. Format : AC-3
  38. Format/Info : Audio Coding 3
  39. Commercial name : Dolby Digital
  40. Muxing mode : Header stripping
  41. Codec ID : A_AC3
  42. Duration : 21 min 4 s
  43. Bit rate mode : Constant
  44. Bit rate : 384 kb/s
  45. Channel(s) : 2 channels
  46. Channel layout : L R
  47. Sampling rate : 48.0 kHz
  48. Frame rate : 31.250 FPS (1536 SPF)
  49. Compression mode : Lossy
  50. Stream size : 57.9 MiB (4%)
  51. Title : AC3 2.0
  52. Language : Portuguese
  53. Service kind : Complete Main
  54. Default : Yes
  55. Forced : No
  56.  
  57. Text
  58. ID : 3
  59. Format : UTF-8
  60. Codec ID : S_TEXT/UTF8
  61. Codec ID/Info : UTF-8 Plain Text
  62. Default : Yes
  63. Forced : No
  64.  
  65. Menu
  66. 00:01:28.504 : en:Intro start
  67. 00:02:28.023 : en:Intro end
  68. 00:20:34.000 : en:Credits
  69.  
Advertisement
Add Comment
Please, Sign In to add comment
Advertisement