Guest User

Untitled

a guest
Feb 5th, 2013
65
Never
Not a member of Pastebin yet? Sign Up, it unlocks many cool features!
  1. Format : Matroska
  2. Format version : Version 4 / Version 2
  3. File size : 55.6 MiB
  4. Duration : 3mn 30s
  5. Overall bit rate : 2 220 Kbps
  6. Encoded date : UTC 2013-01-26 22:37:20
  7. Writing application : mkvmerge v5.9.0 ('On The Loose') built on Dec 31 2012 17:36:59
  8. Writing library : libebml v1.3.0 + libmatroska v1.4.0
  9.  
  10. Video
  11. ID : 1
  12. Format : AVC
  13. Format/Info : Advanced Video Codec
  14. Format profile : High@L4.1
  15. Format settings, CABAC : Yes
  16. Format settings, ReFrames : 5 frames
  17. Codec ID : V_MPEG4/ISO/AVC
  18. Duration : 3mn 30s
  19. Bit rate : 1 791 Kbps
  20. Width : 1 280 pixels
  21. Height : 720 pixels
  22. Display aspect ratio : 16:9
  23. Frame rate mode : Constant
  24. Frame rate : 23.976 fps
  25. Color space : YUV
  26. Chroma subsampling : 4:2:0
  27. Bit depth : 8 bits
  28. Scan type : Progressive
  29. Bits/(Pixel*Frame) : 0.081
  30. Stream size : 44.9 MiB (81%)
  31. Writing library : x264 core 129 r2230 1cffe9f
  32. Encoding settings : cabac=1 / ref=5 / deblock=1:-2:-2 / analyse=0x3:0x133 / me=umh / subme=9 / psy=1 / psy_rd=1.00:0.00 / mixed_ref=1 / me_range=64 / chroma_me=1 / trellis=0 / 8x8dct=1 / cqm=0 / deadzone=21,11 / fast_pskip=1 / chroma_qp_offset=-2 / threads=16 / lookahead_threads=2 / sliced_threads=0 / nr=0 / decimate=1 / interlaced=0 / bluray_compat=0 / constrained_intra=0 / bframes=3 / b_pyramid=0 / b_adapt=1 / b_bias=0 / direct=3 / weightb=1 / open_gop=0 / weightp=2 / keyint=240 / keyint_min=23 / scenecut=40 / intra_refresh=0 / rc_lookahead=40 / rc=crf / mbtree=1 / crf=20.0 / qcomp=0.60 / qpmin=0 / qpmax=28 / qpstep=8 / ip_ratio=1.40 / aq=1:1.00
  33. Default : Yes
  34. Forced : No
  35.  
  36. Audio
  37. ID : 2
  38. Format : AC-3
  39. Format/Info : Audio Coding 3
  40. Mode extension : CM (complete main)
  41. Format settings, Endianness : Big
  42. Codec ID : A_AC3
  43. Duration : 3mn 30s
  44. Bit rate mode : Constant
  45. Bit rate : 384 Kbps
  46. Channel(s) : 2 channels
  47. Channel positions : Front: L R
  48. Sampling rate : 48.0 KHz
  49. Bit depth : 16 bits
  50. Compression mode : Lossy
  51. Stream size : 9.62 MiB (17%)
  52. Default : Yes
  53. Forced : No
  54.  
  55. Text
  56. ID : 3
  57. Format : ASS
  58. Codec ID : S_TEXT/ASS
  59. Codec ID/Info : Advanced Sub Station Alpha
  60. Compression mode : Lossless
  61. Default : Yes
  62. Forced : No
RAW Paste Data