SHARE
TWEET

Untitled

oanastratulat Jan 7th, 2012 53 Never
Not a member of Pastebin yet? Sign Up, it unlocks many cool features!
  1. bash-3.2# valgrind ./ffmpeg -i ~/Downloads/dude -f null -
  2. ==61184== Memcheck, a memory error detector
  3. ==61184== Copyright (C) 2002-2011, and GNU GPL'd, by Julian Seward et al.
  4. ==61184== Using Valgrind-3.7.0 and LibVEX; rerun with -h for copyright info
  5. ==61184== Command: ./ffmpeg -i /Users/vladvladvictorvictor/Downloads/dude -f null -
  6. ==61184==
  7. --61184-- ./ffmpeg:
  8. --61184-- dSYM directory is missing; consider using --dsymutil=yes
  9. ffmpeg version N-36558-gee884c3 Copyright (c) 2000-2012 the FFmpeg developers
  10.   built on Jan  7 2012 17:36:11 with llvm_gcc 4.2.1 (Based on Apple Inc. build 5658) (LLVM build 2336.1.00)
  11.   configuration: samples='~/Desktop/fate-suite-ffmpeg/'
  12.   libavutil      51. 34.100 / 51. 34.100
  13.   libavcodec     53. 54.100 / 53. 54.100
  14.   libavformat    53. 29.100 / 53. 29.100
  15.   libavdevice    53.  4.100 / 53.  4.100
  16.   libavfilter     2. 57.101 /  2. 57.101
  17.   libswscale      2.  1.100 /  2.  1.100
  18.   libswresample   0.  5.100 /  0.  5.100
  19. [fraps @ 0x100f3fe00] Too high symbol frequencies. Tree construction is not possible
  20. [fraps @ 0x100f3fe00] Error decoding plane 0
  21. Input #0, avi, from '/Users/vladvladvictorvictor/Downloads/dude':
  22.   Metadata:
  23.     encoder         : Lavf52.9.0
  24.   Duration: 00:00:09.50, start: 0.000000, bitrate: 1766 kb/s
  25.     Stream #0:0: Video: fraps (FPS1 / 0x31535046), yuvj420p, 640x512, 30 tbr, 30 tbn, 30 tbc
  26. [buffer @ 0x100ff6760] w:640 h:512 pixfmt:yuvj420p tb:1/1000000 sar:0/1 sws_param:
  27. Output #0, null, to 'pipe:':
  28.   Metadata:
  29.     encoder         : Lavf53.29.100
  30.     Stream #0:0: Video: rawvideo (I420 / 0x30323449), yuvj420p, 640x512, q=2-31, 200 kb/s, 90k tbn, 30 tbc
  31. Stream mapping:
  32.   Stream #0:0 -> #0:0 (fraps -> rawvideo)
  33. Press [q] to stop, [?] for help
  34. [fraps @ 0x100f3fe00] Too high symbol frequencies. Tree construction is not possible
  35. [fraps @ 0x100f3fe00] Error decoding plane 0
  36. Error while decoding stream #0:0
  37. [fraps @ 0x100f3fe00] Too high symbol frequencies. Tree construction is not possible
  38. [fraps @ 0x100f3fe00] Error decoding plane 0
  39. Error while decoding stream #0:0
  40. [fraps @ 0x100f3fe00] Too high symbol frequencies. Tree construction is not possible
  41. [fraps @ 0x100f3fe00] Error decoding plane 0
  42. Error while decoding stream #0:0
  43. [fraps @ 0x100f3fe00] Error decoding plane 1
  44. Error while decoding stream #0:0
  45. ==61184== Use of uninitialised value of size 8
  46. ==61184==    at 0x1001DAE48: ff_fmt_convert_init (in ./ffmpeg)
  47. ==61184==    by 0x7AB6B0F: ??? (in /System/Library/PrivateFrameworks/Symbolication.framework/Versions/A/Symbolication)
  48. ==61184==    by 0xFFFFFD3F: ???
  49. ==61184==    by 0xFFFFFD3FFFFFFFFF: ???
  50. ==61184==    by 0x2BF: ???
  51. ==61184==    by 0x20000000FFF: ???
  52. ==61184==    by 0x280001B50FF: ???
  53. ==61184==    by 0xFFFFFFFF: ???
  54. ==61184==    by 0x10113551F: ???
  55. ==61184==    by 0xBFFFE0077: ???
  56. ==61184==    by 0xBFFFE0086: ???
  57. ==61184==    by 0xCFFFE0083: ???
  58. ==61184==
  59. ==61184== Use of uninitialised value of size 8
  60. ==61184==    at 0x1001DAE51: ff_fmt_convert_init (in ./ffmpeg)
  61. ==61184==    by 0x7AB6B0F: ??? (in /System/Library/PrivateFrameworks/Symbolication.framework/Versions/A/Symbolication)
  62. ==61184==    by 0xFFFFFD3F: ???
  63. ==61184==    by 0xFFFFFD3FFFFFFFFF: ???
  64. ==61184==    by 0x2BF: ???
  65. ==61184==    by 0x20000000FFF: ???
  66. ==61184==    by 0x280001B50FF: ???
  67. ==61184==    by 0xFFFFFFFF: ???
  68. ==61184==    by 0x10113551F: ???
  69. ==61184==    by 0xBFFFE0077: ???
  70. ==61184==    by 0xBFFFE0086: ???
  71. ==61184==    by 0xCFFFE0083: ???
  72. ==61184==
  73. [fraps @ 0x100f3fe00] Error decoding plane 0
  74. Error while decoding stream #0:0
  75. Truncating packet of size 303368 to 207369time=00:00:00.23 bitrate=   0.0kbits/s dup=5 drop=0    
  76. [fraps @ 0x100f3fe00] Fraps: plane 1 offset is out of bounds
  77. Error while decoding stream #0:0
  78. frame=    7 fps=  0 q=0.0 Lsize=       0kB time=00:00:00.23 bitrate=   0.0kbits/s dup=5 drop=0    
  79. video:0kB audio:0kB global headers:0kB muxing overhead nan%
  80. Output file is empty, nothing was encoded (check -ss / -t / -frames parameters if used)
  81. ==61184==
  82. ==61184== HEAP SUMMARY:
  83. ==61184==     in use at exit: 819,907 bytes in 1,285 blocks
  84. ==61184==   total heap usage: 2,236 allocs, 951 frees, 10,863,172 bytes allocated
  85. ==61184==
  86. ==61184== LEAK SUMMARY:
  87. ==61184==    definitely lost: 322 bytes in 4 blocks
  88. ==61184==    indirectly lost: 0 bytes in 0 blocks
  89. ==61184==      possibly lost: 0 bytes in 0 blocks
  90. ==61184==    still reachable: 819,585 bytes in 1,281 blocks
  91. ==61184==         suppressed: 0 bytes in 0 blocks
  92. ==61184== Rerun with --leak-check=full to see details of leaked memory
  93. ==61184==
  94. ==61184== For counts of detected and suppressed errors, rerun with: -v
  95. ==61184== Use --track-origins=yes to see where uninitialised values come from
  96. ==61184== ERROR SUMMARY: 2 errors from 2 contexts (suppressed: 448 from 8)
RAW Paste Data
We use cookies for various purposes including analytics. By continuing to use Pastebin, you agree to our use of cookies as described in the Cookies Policy. OK, I Understand
 
Top