Advertisement
Henry_Kr

BTLHP2-2021

Sep 7th, 2021
77
Never
Not a member of Pastebin yet? Sign Up, it unlocks many cool features!
text 4.48 KB | None
  1. Video
  2. ID : 1
  3. Format : AVC
  4. Format/Info : Advanced Video Codec
  5. Format profile : High@L4
  6. Format settings : CABAC / 4 Ref Frames
  7. Format settings, CABAC : Yes
  8. Format settings, Reference : 4 frames
  9. Muxing mode : Header stripping
  10. Codec ID : V_MPEG4/ISO/AVC
  11. Duration : 1 h 27 min
  12. Bit rate : 5 760 kb/s
  13. Width : 1 920 pixels
  14. Height : 1 080 pixels
  15. Display aspect ratio : 16:9
  16. Frame rate mode : Constant
  17. Frame rate : 23.976 (24000/1001) FPS
  18. Color space : YUV
  19. Chroma subsampling : 4:2:0
  20. Bit depth : 8 bits
  21. Scan type : Progressive
  22. Bits/(Pixel*Frame) : 0.116
  23. Stream size : 3.42 GiB (85%)
  24. Title : Batman.The.Long.Halloween.Parte.II.2021.1080p.BluRay.[CartoonNOW]
  25. Writing library : x264 core 155 r2901 7d0ff22
  26. Encoding settings : cabac=1 / ref=4 / deblock=1:-3:-3 / analyse=0x3:0x133 / me=umh / subme=9 / psy=1 / psy_rd=1.10:0.25 / mixed_ref=1 / me_range=32 / chroma_me=1 / trellis=2 / 8x8dct=1 / cqm=0 / deadzone=6,6 / fast_pskip=1 / chroma_qp_offset=-4 / threads=34 / lookahead_threads=3 / sliced_threads=0 / nr=0 / decimate=1 / interlaced=0 / bluray_compat=0 / constrained_intra=0 / bframes=6 / b_pyramid=2 / b_adapt=2 / b_bias=0 / direct=3 / weightb=1 / open_gop=0 / weightp=2 / keyint=240 / keyint_min=24 / scenecut=40 / intra_refresh=0 / rc_lookahead=40 / rc=2pass / mbtree=1 / bitrate=5760 / ratetol=1.0 / qcomp=0.60 / qpmin=0 / qpmax=69 / qpstep=4 / cplxblur=20.0 / qblur=0.5 / vbv_maxrate=20000 / vbv_bufsize=25000 / nal_hrd=none / filler=0 / ip_ratio=1.40 / aq=1:1.00
  27. Language : English
  28. Default : Yes
  29. Forced : No
  30. Color range : Limited
  31. Color primaries : BT.709
  32. Transfer characteristics : BT.709
  33. Matrix coefficients : BT.709
  34.  
  35. Audio #1
  36. ID : 2
  37. Format : E-AC-3
  38. Format/Info : Enhanced AC-3
  39. Commercial name : Dolby Digital Plus
  40. Muxing mode : Header stripping
  41. Codec ID : A_EAC3
  42. Duration : 1 h 27 min
  43. Bit rate mode : Constant
  44. Bit rate : 384 kb/s
  45. Channel(s) : 6 channels
  46. Channel layout : L R C LFE Ls Rs
  47. Sampling rate : 48.0 kHz
  48. Frame rate : 31.250 FPS (1536 SPF)
  49. Compression mode : Lossy
  50. Delay relative to video : -5 ms
  51. Stream size : 239 MiB (6%)
  52. Title : E-AC3 5.1
  53. Language : Portuguese
  54. Service kind : Complete Main
  55. Default : Yes
  56. Forced : No
  57.  
  58. Audio #2
  59. ID : 3
  60. Format : AC-3
  61. Format/Info : Audio Coding 3
  62. Commercial name : Dolby Digital
  63. Muxing mode : Header stripping
  64. Codec ID : A_AC3
  65. Duration : 1 h 27 min
  66. Bit rate mode : Constant
  67. Bit rate : 448 kb/s
  68. Channel(s) : 6 channels
  69. Channel layout : L R C LFE Ls Rs
  70. Sampling rate : 48.0 kHz
  71. Frame rate : 31.250 FPS (1536 SPF)
  72. Compression mode : Lossy
  73. Stream size : 279 MiB (7%)
  74. Title : AC3 5.1
  75. Language : English
  76. Service kind : Complete Main
  77. Default : No
  78. Forced : No
  79.  
  80. Text
  81. ID : 4
  82. Format : UTF-8
  83. Codec ID : S_TEXT/UTF8
  84. Codec ID/Info : UTF-8 Plain Text
  85. Title : Completa
  86. Language : Portuguese
  87. Default : No
  88. Forced : No
  89.  
  90. Menu
  91. 00:00:00.000 : :Chapter 1
  92. 00:09:54.385 : :Chapter 2
  93. 00:18:28.316 : :Chapter 3
  94. 00:28:28.165 : :Chapter 4
  95. 00:38:25.845 : :Chapter 5
  96. 00:46:50.474 : :Chapter 6
  97. 00:56:12.244 : :Chapter 7
  98. 01:05:55.660 : :Chapter 8
  99. 01:15:43.497 : :Chapter 9
  100. 01:24:17.010 : :Chapter 10
  101.  
  102.  
Advertisement
RAW Paste Data Copied
Advertisement