fast62

Untitled

Nov 22nd, 2020 (edited)
695
Never
Not a member of Pastebin yet? Sign Up, it unlocks many cool features!
  1. [center][quote=iNFO][b]RELEASE iNFO[/b]
  2. [font=Lucida Console]RELEASE NAME..: [/font]Ritorno.al.Futuro.1985.1080p.UHD.BluRay.ITA.DTS.ENG.AC3.HDR.x265-DON
  3. [font=Lucida Console]ENCODED DATE..: [/font]UTC 2020-11-19 23:29:33
  4. [font=Lucida Console]RELEASE SIZE..: [/font]21.8 GiB
  5. [font=Lucida Console]RUNTIME.......: [/font]1h 56mn
  6. [font=Lucida Console]VIDEO CODEC...: [/font]x265, High@5.1
  7. [font=Lucida Console]FRAMERATE.....: [/font]23.976 fps
  8. [font=Lucida Console]BITRATE.......: [/font]25.1 Mbps
  9. [font=Lucida Console]RESOLUTION....: [/font]1920x1038
  10. [font=Lucida Console]AUDIO.........: [/font]Italiano DTS, Inglese AC3 5.1
  11. [font=Lucida Console]CHAPTERS......: [/font]Yes
  12. [font=Lucida Console]SUBTITLES.....: [/font]Italiano, Inglese
  13.  
  14. [font=Lucida Console]SOURCE........: [/font]Back to the Future 1985 2160p Remux HEVC TrueHD 7.1-FraMeSToR (Thanks stRAf3r)
  15. [font=Lucida Console]ENCODER.......: [/font]Bravo5
  16.  
  17.  
  18. General
  19. Unique ID                      : 144670900955232463608875105223005007155 (0x6CD69A1E2FDB95F8C37A765FE72D6D33)
  20. Complete name                  : Ritorno.al.Futuro.1985.1080p.UHD.BluRay.ITA.DTS.ENG.AC3.HDR.x265-DON.mkv
  21. Format                         : Matroska
  22. Format version                 : Version 4
  23. File size                      : 21.6 GiB
  24. Duration                       : 1 h 56 min
  25. Overall bit rate               : 26.6 Mb/s
  26. Movie name                     : Ritorno.al.Futuro.1985.1080p.UHD.BluRay.ITA.DTS.ENG.AC3.HDR.x265-DON
  27. Encoded date                   : UTC 2020-11-21 14:19:38
  28. Writing application            : mkvmerge v51.0.0 ('I Wish') 64-bit
  29. Writing library                : libebml v1.4.0 + libmatroska v1.6.2
  30.  
  31. Video
  32. ID                             : 1
  33. Format                         : HEVC
  34. Format/Info                    : High Efficiency Video Coding
  35. Format profile                 : Main 10@L5.1@High
  36. HDR format                     : SMPTE ST 2094 App 4, Version 1, HDR10+ Profile B compatible
  37. Codec ID                       : V_MPEGH/ISO/HEVC
  38. Duration                       : 1 h 56 min
  39. Bit rate                       : 25.0 Mb/s
  40. Width                          : 1 920 pixels
  41. Height                         : 1 038 pixels
  42. Display aspect ratio           : 1.85:1
  43. Frame rate mode                : Constant
  44. Frame rate                     : 23.976 (24000/1001) FPS
  45. Color space                    : YUV
  46. Chroma subsampling             : 4:2:0 (Type 2)
  47. Bit depth                      : 10 bits
  48. Bits/(Pixel*Frame)             : 0.524
  49. Stream size                    : 20.3 GiB (94%)
  50. Title                          : Ritorno.al.Futuro.1985.1080p.UHD.BluRay.ITA.DTS.ENG.AC3.HDR.x265-DON
  51. Writing library                : x265 3.4+26-ga82c6c7a7:[Windows][MSVC 1927][64 bit] 10bit
  52. Encoding settings              : cpuid=1049583 / frame-threads=4 / numa-pools=24 / wpp / no-pmode / no-pme / no-psnr / no-ssim / log-level=2 / input-csp=1 / input-res=1920x1038 / interlace=0 / total-frames=166928 / level-idc=51 / high-tier=1 / uhd-bd=0 / ref=6 / no-allow-non-conformance / repeat-headers / annexb / aud / hrd / info / hash=0 / no-temporal-layers / no-open-gop / min-keyint=23 / keyint=250 / gop-lookahead=0 / bframes=16 / b-adapt=2 / b-pyramid / bframe-bias=0 / rc-lookahead=60 / lookahead-slices=0 / scenecut=40 / hist-scenecut=0 / radl=0 / no-splice / no-intra-refresh / ctu=64 / min-cu-size=8 / no-rect / no-amp / max-tu-size=32 / tu-inter-depth=4 / tu-intra-depth=4 / limit-tu=0 / rdoq-level=2 / dynamic-rd=0.00 / no-ssim-rd / signhide / no-tskip / nr-intra=0 / nr-inter=0 / no-constrained-intra / strong-intra-smoothing / max-merge=5 / limit-refs=0 / no-limit-modes / me=3 / subme=7 / merange=57 / temporal-mvp / no-frame-dup / no-hme / weightp / weightb / no-analyze-src-pics / deblock=-3:-3 / no-sao / no-sao-non-deblock / rd=3 / selective-sao=0 / no-early-skip / rskip / no-fast-intra / no-tskip-fast / no-cu-lossless / b-intra / no-splitrd-skip / rdpenalty=0 / psy-rd=2.00 / psy-rdoq=2.00 / no-rd-refine / no-lossless / cbqpoffs=0 / crqpoffs=0 / rc=crf / crf=14.0 / qcomp=0.65 / qpstep=4 / stats-write=0 / stats-read=0 / vbv-maxrate=160000 / vbv-bufsize=160000 / vbv-init=0.9 / min-vbv-fullness=50.0 / max-vbv-fullness=80.0 / crf-max=0.0 / crf-min=0.0 / ipratio=1.34 / pbratio=1.24 / aq-mode=2 / aq-strength=0.68 / no-cutree / zone-count=0 / no-strict-cbr / qg-size=8 / no-rc-grain / qpmax=69 / qpmin=0 / no-const-vbv / sar=0 / overscan=0 / videoformat=5 / range=0 / colorprim=9 / transfer=16 / colormatrix=9 / chromaloc=1 / chromaloc-top=2 / chromaloc-bottom=2 / display-window=0 / master-display=G(13250,34500)B(7500,3000)R(34000,16000)WP(15635,16450)L(40000000,50) / cll=1000,755 / min-luma=0 / max-luma=1023 / log2-max-poc-lsb=8 / vui-timing-info / vui-hrd-info / slices=1 / no-opt-qp-pps / no-opt-ref-list-length-pps / no-multi-pass-opt-rps / scenecut-bias=0.05 / hist-threshold=0.03 / no-opt-cu-delta-qp / no-aq-motion / hdr10 / hdr10-opt / no-dhdr10-opt / no-idr-recovery-sei / analysis-reuse-level=0 / analysis-save-reuse-level=0 / analysis-load-reuse-level=0 / scale-factor=0 / refine-intra=0 / refine-inter=0 / refine-mv=1 / refine-ctu-distortion=0 / no-limit-sao / ctu-info=0 / no-lowpass-dct / refine-analysis-type=0 / copy-pic=1 / max-ausize-factor=1.0 / no-dynamic-refine / no-single-sei / no-hevc-aq / no-svt / no-field / qp-adaptation-range=1.00 / no-scenecut-aware-qpconformance-window-offsets / right=0 / bottom=0 / decoder-max-rate=0 / no-vbv-live-multi-pass
  53. Language                       : English
  54. Default                        : Yes
  55. Forced                         : No
  56. Color range                    : Limited
  57. Color primaries                : BT.2020
  58. Transfer characteristics       : PQ
  59. Matrix coefficients            : BT.2020 non-constant
  60. Mastering display color primar : Display P3
  61. Mastering display luminance    : min: 0.0050 cd/m2, max: 4000 cd/m2
  62. Maximum Content Light Level    : 1000 cd/m2
  63. Maximum Frame-Average Light Le : 755 cd/m2
  64.  
  65. Audio #1
  66. ID                             : 2
  67. Format                         : DTS
  68. Format/Info                    : Digital Theater Systems
  69. Codec ID                       : A_DTS
  70. Duration                       : 1 h 56 min
  71. Bit rate mode                  : Constant
  72. Bit rate                       : 768 kb/s
  73. Channel(s)                     : 6 channels
  74. Channel layout                 : C L R Ls Rs LFE
  75. Sampling rate                  : 48.0 kHz
  76. Frame rate                     : 93.750 FPS (512 SPF)
  77. Bit depth                      : 24 bits
  78. Compression mode               : Lossy
  79. Stream size                    : 637 MiB (3%)
  80. Title                          : DTS ITA 5.1 768 kbps
  81. Language                       : Italian
  82. Default                        : Yes
  83. Forced                         : No
  84.  
  85. Audio #2
  86. ID                             : 3
  87. Format                         : AC-3
  88. Format/Info                    : Audio Coding 3
  89. Commercial name                : Dolby Digital
  90. Codec ID                       : A_AC3
  91. Duration                       : 1 h 56 min
  92. Bit rate mode                  : Constant
  93. Bit rate                       : 448 kb/s
  94. Channel(s)                     : 6 channels
  95. Channel layout                 : L R C LFE Ls Rs
  96. Sampling rate                  : 48.0 kHz
  97. Frame rate                     : 31.250 FPS (1536 SPF)
  98. Compression mode               : Lossy
  99. Stream size                    : 372 MiB (2%)
  100. Title                          : AC3 ENG 5.1 448 kbps
  101. Language                       : English
  102. Service kind                   : Complete Main
  103. Default                        : No
  104. Forced                         : No
  105.  
  106. Audio #3
  107. ID                             : 4
  108. Format                         : AC-3
  109. Format/Info                    : Audio Coding 3
  110. Commercial name                : Dolby Digital
  111. Codec ID                       : A_AC3
  112. Duration                       : 1 h 56 min
  113. Bit rate mode                  : Constant
  114. Bit rate                       : 192 kb/s
  115. Channel(s)                     : 2 channels
  116. Channel layout                 : L R
  117. Sampling rate                  : 48.0 kHz
  118. Frame rate                     : 31.250 FPS (1536 SPF)
  119. Compression mode               : Lossy
  120. Stream size                    : 159 MiB (1%)
  121. Title                          : Commentary by Director Robert Zemeckis/Producer Bob Gale (Q&A)
  122. Language                       : English
  123. Service kind                   : Complete Main
  124. Default                        : No
  125. Forced                         : No
  126.  
  127. Audio #4
  128. ID                             : 5
  129. Format                         : AC-3
  130. Format/Info                    : Audio Coding 3
  131. Commercial name                : Dolby Digital
  132. Codec ID                       : A_AC3
  133. Duration                       : 1 h 56 min
  134. Bit rate mode                  : Constant
  135. Bit rate                       : 192 kb/s
  136. Channel(s)                     : 2 channels
  137. Channel layout                 : L R
  138. Sampling rate                  : 48.0 kHz
  139. Frame rate                     : 31.250 FPS (1536 SPF)
  140. Compression mode               : Lossy
  141. Stream size                    : 159 MiB (1%)
  142. Title                          : Commentary by Producers Bob Gale/Neil Canton
  143. Language                       : English
  144. Service kind                   : Complete Main
  145. Default                        : No
  146. Forced                         : No
  147.  
  148. Text #1
  149. ID                             : 6
  150. Format                         : UTF-8
  151. Codec ID                       : S_TEXT/UTF8
  152. Codec ID/Info                  : UTF-8 Plain Text
  153. Duration                       : 1 h 54 min
  154. Bit rate                       : 1 b/s
  155. Count of elements              : 52
  156. Stream size                    : 1.51 KiB (0%)
  157. Title                          : Forced
  158. Language                       : Italian
  159. Default                        : Yes
  160. Forced                         : Yes
  161.  
  162. Text #2
  163. ID                             : 7
  164. Format                         : UTF-8
  165. Codec ID                       : S_TEXT/UTF8
  166. Codec ID/Info                  : UTF-8 Plain Text
  167. Duration                       : 1 h 50 min
  168. Bit rate                       : 55 b/s
  169. Count of elements              : 1304
  170. Stream size                    : 44.6 KiB (0%)
  171. Language                       : Italian
  172. Default                        : No
  173. Forced                         : No
  174.  
  175. Text #3
  176. ID                             : 8
  177. Format                         : UTF-8
  178. Codec ID                       : S_TEXT/UTF8
  179. Codec ID/Info                  : UTF-8 Plain Text
  180. Duration                       : 1 h 50 min
  181. Bit rate                       : 60 b/s
  182. Count of elements              : 1255
  183. Stream size                    : 49.0 KiB (0%)
  184. Language                       : English
  185. Default                        : No
  186. Forced                         : No
  187.  
  188. Text #4
  189. ID                             : 9
  190. Format                         : UTF-8
  191. Codec ID                       : S_TEXT/UTF8
  192. Codec ID/Info                  : UTF-8 Plain Text
  193. Duration                       : 1 h 51 min
  194. Bit rate                       : 66 b/s
  195. Count of elements              : 1776
  196. Stream size                    : 54.1 KiB (0%)
  197. Title                          : SDH
  198. Language                       : English
  199. Default                        : No
  200. Forced                         : No
  201.  
  202. Text #5
  203. ID                             : 10
  204. Format                         : UTF-8
  205. Codec ID                       : S_TEXT/UTF8
  206. Codec ID/Info                  : UTF-8 Plain Text
  207. Duration                       : 1 h 51 min
  208. Bit rate                       : 105 b/s
  209. Count of elements              : 1687
  210. Stream size                    : 86.1 KiB (0%)
  211. Title                          : Commentary # 1
  212. Language                       : Italian
  213. Default                        : No
  214. Forced                         : No
  215.  
  216. Text #6
  217. ID                             : 11
  218. Format                         : UTF-8
  219. Codec ID                       : S_TEXT/UTF8
  220. Codec ID/Info                  : UTF-8 Plain Text
  221. Duration                       : 1 h 51 min
  222. Bit rate                       : 118 b/s
  223. Count of elements              : 1682
  224. Stream size                    : 96.6 KiB (0%)
  225. Title                          : Commentary # 1
  226. Language                       : English
  227. Default                        : No
  228. Forced                         : No
  229.  
  230. Text #7
  231. ID                             : 12
  232. Format                         : UTF-8
  233. Codec ID                       : S_TEXT/UTF8
  234. Codec ID/Info                  : UTF-8 Plain Text
  235. Duration                       : 1 h 51 min
  236. Bit rate                       : 92 b/s
  237. Count of elements              : 1630
  238. Stream size                    : 76.1 KiB (0%)
  239. Title                          : Commentary # 2
  240. Language                       : Italian
  241. Default                        : No
  242. Forced                         : No
  243.  
  244. Text #8
  245. ID                             : 13
  246. Format                         : UTF-8
  247. Codec ID                       : S_TEXT/UTF8
  248. Codec ID/Info                  : UTF-8 Plain Text
  249. Duration                       : 1 h 51 min
  250. Bit rate                       : 104 b/s
  251. Count of elements              : 1623
  252. Stream size                    : 85.5 KiB (0%)
  253. Title                          : Commentary # 2
  254. Language                       : English
  255. Default                        : No
  256. Forced                         : No
  257.  
  258. Menu
  259. 00:00:00.000                   : en:Main Titles
  260. 00:04:13.545                   : en:Late for School
  261. 00:06:47.282                   : en:The Slacker
  262. 00:11:45.246                   : en:The Family McFly
  263. 00:18:04.166                   : en:A Time Machine?
  264. 00:28:12.274                   : en:Escape to the Past
  265. 00:31:30.680                   : en:1955
  266. 00:38:40.693                   : en:Dad the Dork
  267. 00:41:22.313                   : en:Calvin & Lorraine
  268. 00:47:53.370                   : en:Future Boy & Doc
  269. 00:55:53.141                   : en:Marty's Problem
  270. 00:58:49.860                   : en:The Matchmaker
  271. 01:05:16.788                   : en:Skateboard Hero
  272. 01:16:40.304                   : en:The Big Date
  273. 01:20:14.643                   : en:The Real George
  274. 01:27:23.321                   : en:Johnny B. Goode
  275. 01:31:12.050                   : en:Back to the Future
  276. 01:41:40.553                   : en:Doc's Decision
  277. 01:46:41.437                   : en:Future Shock
  278. 01:51:24.511                   : en:Roads? (Credits)
RAW Paste Data