Secasa

Untitled

Jan 6th, 2015
28
Never
Not a member of Pastebin yet? Sign Up, it unlocks many cool features!
  1. Format : Matroska
  2. Format version : Version 4 / Version 2
  3. File size : 5.65 GiB
  4. Duration : 1h 39mn
  5. Overall bit rate : 8 146 Kbps
  6. Movie name : Besos de vampiro [1989][m1080p.HDTV][AC3.Dual.Subs][by.FerranGB]
  7. Encoded date : UTC 2014-12-11 17:27:03
  8. Writing application : mkvmerge v6.2.0 ('Promised Land') built on Apr 28 2013 12:22:01
  9. Writing library : libebml v1.3.0 + libmatroska v1.4.0
  10.  
  11. Video
  12. ID : 1
  13. Format : AVC
  14. Format/Info : Advanced Video Codec
  15. Format profile : High@L4.0
  16. Format settings, CABAC : Yes
  17. Format settings, ReFrames : 3 frames
  18. Codec ID : V_MPEG4/ISO/AVC
  19. Duration : 1h 39mn
  20. Bit rate : 7 408 Kbps
  21. Width : 1 920 pixels
  22. Height : 1 040 pixels
  23. Display aspect ratio : 1.85:1
  24. Frame rate mode : Constant
  25. Frame rate : 25.000 fps
  26. Color space : YUV
  27. Chroma subsampling : 4:2:0
  28. Bit depth : 8 bits
  29. Scan type : Progressive
  30. Bits/(Pixel*Frame) : 0.148
  31. Stream size : 5.14 GiB (91%)
  32. Title : Besos de vampiro.[1989][m1080p.HDTV][AC3.Dual.Subs][by.FerranGB]
  33. Writing library : x264 core 130 r2273 b3065e6
  34. Encoding settings : cabac=1 / ref=4 / deblock=1:0:0 / analyse=0x3:0x113 / me=hex / subme=9 / psy=1 / psy_rd=1.00:0.15 / mixed_ref=1 / me_range=16 / chroma_me=1 / trellis=2 / 8x8dct=1 / cqm=0 / deadzone=21,11 / fast_pskip=1 / chroma_qp_offset=-3 / threads=12 / lookahead_threads=1 / sliced_threads=0 / nr=0 / decimate=1 / interlaced=0 / bluray_compat=0 / constrained_intra=0 / bframes=4 / b_pyramid=1 / b_adapt=2 / b_bias=0 / direct=1 / weightb=1 / open_gop=0 / weightp=2 / keyint=250 / keyint_min=25 / scenecut=40 / intra_refresh=0 / rc_lookahead=40 / rc=crf / mbtree=1 / crf=18.5 / qcomp=0.60 / qpmin=0 / qpmax=69 / qpstep=4 / ip_ratio=1.40 / aq=1:1.00
  35. Language : English
  36. Default : Yes
  37. Forced : No
  38. Color primaries : BT.709
  39. Transfer characteristics : BT.709
  40. Matrix coefficients : BT.709
  41.  
  42. Audio #1
  43. ID : 2
  44. Format : AC-3
  45. Format/Info : Audio Coding 3
  46. Mode extension : CM (complete main)
  47. Format settings, Endianness : Big
  48. Codec ID : A_AC3
  49. Duration : 1h 39mn
  50. Bit rate mode : Constant
  51. Bit rate : 192 Kbps
  52. Channel(s) : 2 channels
  53. Channel positions : Front: L R
  54. Sampling rate : 48.0 KHz
  55. Bit depth : 16 bits
  56. Compression mode : Lossy
  57. Stream size : 136 MiB (2%)
  58. Title : AC3 2.0 @192 Kbps (Castellano)
  59. Language : Spanish
  60. Default : Yes
  61. Forced : No
  62.  
  63. Audio #2
  64. ID : 3
  65. Format : AC-3
  66. Format/Info : Audio Coding 3
  67. Format profile : Dolby Digital
  68. Mode extension : CM (complete main)
  69. Format settings, Endianness : Big
  70. Codec ID : A_AC3
  71. Duration : 1h 39mn
  72. Bit rate mode : Constant
  73. Bit rate : 384 Kbps
  74. Channel(s) : 2 channels
  75. Channel positions : Front: L R
  76. Sampling rate : 48.0 KHz
  77. Bit depth : 16 bits
  78. Compression mode : Lossy
  79. Delay relative to video : 4ms
  80. Stream size : 273 MiB (5%)
  81. Title : AC3 2.0 @384 Kbps (Inglés)
  82. Language : English
  83. Default : No
  84. Forced : No
  85.  
  86. Text #1
  87. ID : 4
  88. Format : UTF-8
  89. Codec ID : S_TEXT/UTF8
  90. Codec ID/Info : UTF-8 Plain Text
  91. Title : Forzados Castellano (srt)
  92. Language : Spanish
  93. Default : Yes
  94. Forced : No
  95.  
  96. Text #2
  97. ID : 5
  98. Format : UTF-8
  99. Codec ID : S_TEXT/UTF8
  100. Codec ID/Info : UTF-8 Plain Text
  101. Title : Completos Inglés (srt)
  102. Language : English
  103. Default : No
  104. Forced : No
RAW Paste Data