Guest User

Untitled

a guest
Jul 18th, 2021
26
Never
Not a member of Pastebin yet? Sign Up, it unlocks many cool features!
  1. General
  2. Unique ID : 89288918255279826644802428711600699269 (0x432C6B8E18D79503D6580A81DF58B785)
  3. Complete name : G:\Video\Trading.Paint.2019.BDRip.720p.seleZen.mkv
  4. Format : Matroska
  5. Format version : Version 4
  6. File size : 3.89 GiB
  7. Duration : 1 h 27 min
  8. Overall bit rate : 6 390 kb/s
  9. Movie name : Trading Paint 2019 from seleZen
  10. Encoded date : UTC 2021-07-19 01:01:00
  11. Writing application : mkvmerge v53.0.0 ('Fool's Gold') 64-bit
  12. Writing library : libebml v1.4.1 + libmatroska v1.6.2
  13.  
  14. Video
  15. ID : 1
  16. Format : AVC
  17. Format/Info : Advanced Video Codec
  18. Format profile : High@L4.1
  19. Format settings : CABAC / 12 Ref Frames
  20. Format settings, CABAC : Yes
  21. Format settings, Reference : 12 frames
  22. Codec ID : V_MPEG4/ISO/AVC
  23. Duration : 1 h 27 min
  24. Bit rate : 5 365 kb/s
  25. Width : 1 280 pixels
  26. Height : 536 pixels
  27. Display aspect ratio : 2.40:1
  28. Frame rate mode : Constant
  29. Frame rate : 23.976 (24000/1001) FPS
  30. Color space : YUV
  31. Chroma subsampling : 4:2:0
  32. Bit depth : 8 bits
  33. Scan type : Progressive
  34. Bits/(Pixel*Frame) : 0.326
  35. Stream size : 3.27 GiB (84%)
  36. Writing library : x264 core 146 -from seleZen
  37. Encoding settings : cabac=1 / ref=12 / deblock=1:-2:-2 / analyse=0x3:0x133 / me=umh / subme=11 / psy=1 / psy_rd=1.05:0.05 / mixed_ref=1 / me_range=32 / chroma_me=1 / trellis=2 / 8x8dct=1 / cqm=0 / deadzone=21,11 / fast_pskip=0 / chroma_qp_offset=-3 / threads=48 / lookahead_threads=4 / sliced_threads=0 / nr=0 / decimate=0 / interlaced=0 / bluray_compat=0 / constrained_intra=0 / bframes=9 / b_pyramid=2 / b_adapt=2 / b_bias=0 / direct=3 / weightb=1 / open_gop=0 / weightp=2 / keyint=240 / keyint_min=23 / scenecut=40 / intra_refresh=0 / rc_lookahead=50 / rc=2pass / mbtree=0 / bitrate=5365 / ratetol=1.0 / qcomp=0.60 / qpmin=0 / qpmax=51 / qpstep=4 / cplxblur=20.0 / qblur=0.5 / vbv_maxrate=50000 / vbv_bufsize=62500 / nal_hrd=none / filler=0 / ip_ratio=1.40 / pb_ratio=1.30 / aq=3:0.80
  38. Language : English
  39. Default : Yes
  40. Forced : No
  41.  
  42. Audio #1
  43. ID : 2
  44. Format : AC-3
  45. Format/Info : Audio Coding 3
  46. Commercial name : Dolby Digital
  47. Codec ID : A_AC3
  48. Duration : 1 h 27 min
  49. Bit rate mode : Constant
  50. Bit rate : 384 kb/s
  51. Channel(s) : 6 channels
  52. Channel layout : L R C LFE Ls Rs
  53. Sampling rate : 48.0 kHz
  54. Frame rate : 31.250 FPS (1536 SPF)
  55. Compression mode : Lossy
  56. Stream size : 240 MiB (6%)
  57. Title : iTunes
  58. Language : Russian
  59. Service kind : Complete Main
  60. Default : Yes
  61. Forced : Yes
  62.  
  63. Audio #2
  64. ID : 3
  65. Format : AC-3
  66. Format/Info : Audio Coding 3
  67. Commercial name : Dolby Digital
  68. Codec ID : A_AC3
  69. Duration : 1 h 27 min
  70. Bit rate mode : Constant
  71. Bit rate : 640 kb/s
  72. Channel(s) : 6 channels
  73. Channel layout : L R C LFE Ls Rs
  74. Sampling rate : 48.0 kHz
  75. Frame rate : 31.250 FPS (1536 SPF)
  76. Compression mode : Lossy
  77. Stream size : 399 MiB (10%)
  78. Title : Original
  79. Language : English
  80. Service kind : Complete Main
  81. Default : No
  82. Forced : No
  83.  
  84. Text
  85. ID : 4
  86. Format : UTF-8
  87. Codec ID : S_TEXT/UTF8
  88. Codec ID/Info : UTF-8 Plain Text
  89. Duration : 1 h 24 min
  90. Bit rate : 68 b/s
  91. Count of elements : 1085
  92. Stream size : 42.3 KiB (0%)
  93. Title : Full
  94. Language : English
  95. Default : No
  96. Forced : No
  97.  
  98. Menu
  99. 00:00:00.000 : en:Chapter 1
  100. 00:06:09.410 : en:Chapter 2
  101. 00:09:57.179 : en:Chapter 3
  102. 00:15:44.026 : en:Chapter 4
  103. 00:20:36.610 : en:Chapter 5
  104. 00:26:46.563 : en:Chapter 6
  105. 00:33:00.645 : en:Chapter 7
  106. 00:38:24.885 : en:Chapter 8
  107. 00:42:32.007 : en:Chapter 9
  108. 00:45:46.034 : en:Chapter 10
  109. 00:49:54.950 : en:Chapter 11
  110. 00:55:05.593 : en:Chapter 12
  111. 01:00:53.107 : en:Chapter 13
  112. 01:04:55.933 : en:Chapter 14
  113. 01:08:54.338 : en:Chapter 15
  114. 01:12:28.302 : en:Chapter 16
  115.  
  116.  
RAW Paste Data