Henry_Kr

UND-S01

Sep 13th, 2019
271
Never
Not a member of Pastebin yet? Sign Up, it unlocks many cool features!
  1. Video
  2. ID : 1
  3. Format : AVC
  4. Format/Info : Advanced Video Codec
  5. Format profile : High@L4
  6. Format settings : CABAC / 4 Ref Frames
  7. Format settings, CABAC : Yes
  8. Format settings, Reference : 4 frames
  9. Muxing mode : Header stripping
  10. Codec ID : V_MPEG4/ISO/AVC
  11. Duration : 22 min 39 s
  12. Bit rate mode : Constant
  13. Bit rate : 7 125 kb/s
  14. Nominal bit rate : 10 000 kb/s
  15. Width : 1 920 pixels
  16. Height : 1 080 pixels
  17. Display aspect ratio : 16:9
  18. Frame rate mode : Constant
  19. Frame rate : 23.976 (24000/1001) FPS
  20. Color space : YUV
  21. Chroma subsampling : 4:2:0
  22. Bit depth : 8 bits
  23. Scan type : Progressive
  24. Bits/(Pixel*Frame) : 0.143
  25. Stream size : 1.13 GiB (83%)
  26. Title : Undone.S01E01.1080p.WEB-DL.[CartoonNOW]
  27. Language : English
  28. Default : Yes
  29. Forced : No
  30.  
  31.  
  32. Audio #1
  33. ID : 2
  34. Format : E-AC-3
  35. Format/Info : Enhanced AC-3
  36. Commercial name : Dolby Digital Plus
  37. Muxing mode : Header stripping
  38. Codec ID : A_EAC3
  39. Duration : 22 min 39 s
  40. Bit rate mode : Constant
  41. Bit rate : 640 kb/s
  42. Channel(s) : 6 channels
  43. Channel layout : L R C LFE Ls Rs
  44. Sampling rate : 48.0 kHz
  45. Frame rate : 31.250 FPS (1536 SPF)
  46. Compression mode : Lossy
  47. Stream size : 104 MiB (7%)
  48. Title : E-AC3 5.1
  49. Language : Portuguese
  50. Service kind : Complete Main
  51. Default : Yes
  52. Forced : No
  53. Statistics Tags Issue : mkvmerge v37.0.0 ('Leave It') 64-bit 2019-09-13 04:58:20 / mkvmerge v5.8.0 ('No Sleep / Pillow') built on Sep 2 2012 15:37:04 2019-09-13 18:49:51
  54. FromStats_BitRate : 640000
  55. FromStats_Duration : 00:22:39.776000000
  56. FromStats_FrameCount : 42493
  57. FromStats_StreamSize : 108782080
  58.  
  59. Audio #2
  60. ID : 3
  61. Format : E-AC-3
  62. Format/Info : Enhanced AC-3
  63. Commercial name : Dolby Digital Plus
  64. Muxing mode : Header stripping
  65. Codec ID : A_EAC3
  66. Duration : 22 min 39 s
  67. Bit rate mode : Constant
  68. Bit rate : 640 kb/s
  69. Channel(s) : 6 channels
  70. Channel layout : L R C LFE Ls Rs
  71. Sampling rate : 48.0 kHz
  72. Frame rate : 31.250 FPS (1536 SPF)
  73. Compression mode : Lossy
  74. Stream size : 104 MiB (7%)
  75. Title : E-AC3 5.1
  76. Language : English
  77. Service kind : Complete Main
  78. Default : No
  79. Forced : No
  80. Statistics Tags Issue : mkvmerge v37.0.0 ('Leave It') 64-bit 2019-09-13 04:58:20 / mkvmerge v5.8.0 ('No Sleep / Pillow') built on Sep 2 2012 15:37:04 2019-09-13 18:49:51
  81. FromStats_BitRate : 640000
  82. FromStats_Duration : 00:22:39.744000000
  83. FromStats_FrameCount : 42492
  84. FromStats_StreamSize : 108779520
  85.  
  86. Text #1
  87. ID : 4
  88. Format : UTF-8
  89. Codec ID : S_TEXT/UTF8
  90. Codec ID/Info : UTF-8 Plain Text
  91. Title : Forçada
  92. Language : Portuguese
  93. Default : Yes
  94. Forced : No
  95. Statistics Tags Issue : mkvmerge v37.0.0 ('Leave It') 64-bit 2019-09-13 04:58:20 / mkvmerge v5.8.0 ('No Sleep / Pillow') built on Sep 2 2012 15:37:04 2019-09-13 18:49:51
  96. FromStats_BitRate : 105
  97. FromStats_Duration : 00:00:01.668000000
  98. FromStats_FrameCount : 1
  99. FromStats_StreamSize : 22
  100.  
  101. Text #2
  102. ID : 5
  103. Format : UTF-8
  104. Codec ID : S_TEXT/UTF8
  105. Codec ID/Info : UTF-8 Plain Text
  106. Title : Completa
  107. Language : Portuguese
  108. Default : No
  109. Forced : No
  110. Statistics Tags Issue : mkvmerge v37.0.0 ('Leave It') 64-bit 2019-09-13 04:58:20 / mkvmerge v5.8.0 ('No Sleep / Pillow') built on Sep 2 2012 15:37:04 2019-09-13 18:49:51
  111. FromStats_BitRate : 86
  112. FromStats_Duration : 00:20:10.167000000
  113. FromStats_FrameCount : 406
  114. FromStats_StreamSize : 13018
  115.  
  116. Menu
  117. 00:03:40.000 : en:Alma never wants to settle down
  118. 00:13:43.000 : en:Alma is afraid to move forward
  119. 00:18:52.000 : en:Broken people break other people
  120. 00:00:00.000 : en:Amazon Original
  121. 00:11:28.000 : en:Supporting Becca on her special night
  122. 00:10:16.000 : en:Getting on the same page
  123. 00:08:22.000 : en:Alma helps her mom look through photos
  124. 00:01:44.000 : en:Celebrating an engagement
  125. 00:21:28.000 : en:End Credits
  126. 00:00:17.000 : en:Alma is so bored with living
  127. 00:06:20.000 : en:The frustrations of her job
  128. 00:00:05.000 : en:Title Sequence
RAW Paste Data