Guest User

[DB] Haven't You Heard? I'm Sakamoto E01

a guest
Dec 22nd, 2017
227
Never
Not a member of Pastebin yet? Sign Up, it unlocks many cool features!
  1. General
  2. Unique ID : 184057411641210311547162427549706528946 (0x8A782B05C23D1CC199404F7CCB0AA8B2)
  3. Complete name : [DB]Haven't You Heard I'm Sakamoto_-_01_(Dual Audio_10bit_BD1080p_x265).mkv
  4. Format : Matroska
  5. Format version : Version 2
  6. File size : 335 MiB
  7. Duration : 24 min 20 s
  8. Overall bit rate : 1 925 kb/s
  9. Encoded date : UTC 2017-12-16 22:54:46
  10. Writing application : mkvmerge v18.0.0 ('Apricity') 64-bit
  11. Writing library : libebml v1.3.5 + libmatroska v1.4.8
  12. Attachments : Asap-Regular.ttf / RockoUltraFLF.ttf / Ubuntu-Bold.ttf / 07nikumaru.ttf / ASAP-BOLD.OTF / Arsenal-Bold.otf / Asap-Bold.otf / Asap-Regular.otf / Aver Bold.ttf / BACK.TTF / badabb.ttf / BeeMarkerInk.TTF / Bleak Chop.ttf / Blogger Sans-Medium.ttf / Bolide-Regular.ttf / bosil unique Regular.ttf / BrushType.ttf / BubblegumSans-Regular.otf / CapricaSans.ttf / CFCantChangeTheWorld-Regula.ttf / CFJackStory-Regular.ttf / Chanor_Sans_Book_Bold_by_xlphs.otf / chinese rocks rg.ttf / chinrg_0.ttf / DejaVuSans.ttf / DejaVuSans-Bold.ttf / DejaVuSansCondensed.ttf / DejaVuSansCondensed-Bold.ttf / DHF Happy Birthday Ryan.ttf / DHF Semangat 2012 Bold Demo.ttf / DHF Semangat 2012 Demo.ttf / DJB Chalk It Up.ttf / DJB Yard Sale Marker.otf / DK Black Bamboo.ttf / DK Crayon Crumble_0.ttf / DK Sugary Pancake.otf / Dosis-Bold.ttf / eurof75.ttf / Fabrica.otf / FEASFBRG.TTF / flashit.ttf / Florence-Normal.ttf / framd.ttf / FRAMDCN.TTF / FRML436N.TTF / FTLTLT.TTF / Garamond Halbfett.ttf / garr65w.ttf / Glingzerminator.ttf / Goombella.ttf / Grandstander-clean.ttf / GUINEAPIGS.TTF / HelveticaCdBlk.ttf / homework normal.ttf / IwaOMinPro-Bd-Fate.ttf / JB.ttf / JotiOne-Regular.otf / KGBlankSpace-Solid.ttf / KGTenThousandReasonsAlt.ttf / Kingthings Exeter.ttf / KOMIKASK.ttf / Lato-Black.ttf / laurencb.ttf / LEHN018.TTF / LOVE IS COMPLICATED AGAIN (BOLD).TTF / LT_7.ttf / mangat.ttf / MILF_.TTF / nyala.TTF / nyala_0.ttf / OpenSans-Semibold.ttf / OpenSans-SemiboldItalic.ttf / OptimaLTStd-Bold.ttf / Pen_of_Truth___FREE_FONT_by_Sonira.ttf / Polo Brush.ttf / PoloSemiScript-Normal.ttf / PWBoldScript.ttf / QueenEmpress.ttf / Rainstorms in July.ttf / Resagokr.otf / Roboto-Bold.ttf / RockoUltraFLF-Bold.ttf / RolandBecker Bold Italic.ttf / RolandBecker Bold.ttf / ShakeAndBake.otf / ShunSet-Regular.ttf / StrejkaRegular_FREE_FOR_PERSONAL_USE_ONLY.ttf / Stylo Bold.ttf / tags.xml / Thames.ttf / TomatoRoundCondensed.ttf / TomatoRoundCondensed-Thin.ttf / True Lies.ttf / TwCenMTMacron-Bold.otf / Ubuntu-B.ttf / ufonts.com_0-lumax-bigcaps-dna.ttf / Uzumasa Honmaru Gothic.otf / WarsawGothicSuExt.otf / Waterlily Script.ttf / whatever it takes bold.ttf / Xolonium-Bold.otf / ZombieTreats.ttf / 9SALERNO.TTF / 9THYSSEN.TTF / 14 minutes sharp.ttf / ABOVEA DEMO.otf / Aero Matics Bold Italic.ttf / Aero Matics Bold.ttf / AG Old Face Regular.ttf / AJenson-Regular.ttf / aldine_401_bold_bt.ttf / Angella_demo.otf / ARCENA.ttf / ArchivoNarrow-Bold.ttf / Ardeco.ttf / arialbd.ttf / ARIALNB.TTF / ariblk.ttf
  13.  
  14. Video
  15. ID : 1
  16. Format : HEVC
  17. Format/Info : High Efficiency Video Coding
  18. Format profile : Main 10@L4@Main
  19. Codec ID : V_MPEGH/ISO/HEVC
  20. Duration : 24 min 18 s
  21. Bit rate : 1 468 kb/s
  22. Width : 1 920 pixels
  23. Height : 1 080 pixels
  24. Display aspect ratio : 16:9
  25. Frame rate mode : Constant
  26. Frame rate : 23.976 (24000/1001) FPS
  27. Color space : YUV
  28. Chroma subsampling : 4:2:0
  29. Bit depth : 10 bits
  30. Bits/(Pixel*Frame) : 0.030
  31. Stream size : 255 MiB (76%)
  32. Writing library : x265 2.5+49-563cbe1f4a21:[Windows][GCC 7.2.0][64 bit] 10bit
  33. Encoding settings : cpuid=1173503 / frame-threads=3 / numa-pools=8 / wpp / no-pmode / no-pme / no-psnr / no-ssim / log-level=2 / input-csp=1 / input-res=1920x1080 / interlace=0 / total-frames=34979 / level-idc=0 / high-tier=1 / uhd-bd=0 / ref=3 / no-allow-non-conformance / no-repeat-headers / annexb / no-aud / no-hrd / info / hash=0 / no-temporal-layers / open-gop / min-keyint=23 / keyint=250 / bframes=4 / b-adapt=2 / b-pyramid / bframe-bias=0 / rc-lookahead=20 / lookahead-slices=6 / scenecut=40 / no-intra-refresh / ctu=64 / min-cu-size=8 / no-rect / no-amp / max-tu-size=32 / tu-inter-depth=1 / tu-intra-depth=1 / limit-tu=0 / rdoq-level=0 / dynamic-rd=0.00 / no-ssim-rd / signhide / no-tskip / nr-intra=0 / nr-inter=0 / no-constrained-intra / strong-intra-smoothing / max-merge=2 / limit-refs=3 / no-limit-modes / me=1 / subme=2 / merange=57 / temporal-mvp / weightp / no-weightb / no-analyze-src-pics / deblock=0:0 / sao / no-sao-non-deblock / rd=3 / no-early-skip / rskip / no-fast-intra / no-tskip-fast / no-cu-lossless / no-b-intra / no-splitrd-skip / rdpenalty=0 / psy-rd=2.00 / psy-rdoq=0.00 / no-rd-refine / analysis-reuse-mode=0 / no-lossless / cbqpoffs=0 / crqpoffs=0 / rc=crf / crf=21.0 / qcomp=0.60 / qpstep=4 / stats-write=0 / stats-read=0 / ipratio=1.40 / pbratio=1.30 / aq-mode=1 / aq-strength=1.00 / cutree / zone-count=0 / no-strict-cbr / qg-size=32 / no-rc-grain / qpmax=69 / qpmin=0 / no-const-vbv / sar=1 / overscan=0 / videoformat=5 / range=0 / colorprim=2 / transfer=2 / colormatrix=2 / chromaloc=0 / display-window=0 / max-cll=0,0 / min-luma=0 / max-luma=1023 / log2-max-poc-lsb=8 / vui-timing-info / vui-hrd-info / slices=1 / opt-qp-pps / opt-ref-list-length-pps / no-multi-pass-opt-rps / scenecut-bias=0.05 / no-opt-cu-delta-qp / no-aq-motion / no-hdr / no-hdr-opt / no-dhdr10-opt / analysis-reuse-level=5 / scale-factor=0 / refine-intra=0 / refine-inter=0 / refine-mv=0 / no-limit-sao / ctu-info=0 / no-lowpass-dct / refine-mv-type=0
  34. Default : Yes
  35. Forced : No
  36.  
  37. Audio #1
  38. ID : 2
  39. Format : AAC
  40. Format/Info : Advanced Audio Codec
  41. Format profile : LC
  42. Codec ID : A_AAC-2
  43. Duration : 24 min 19 s
  44. Bit rate : 139 kb/s
  45. Channel(s) : 2 channels
  46. Channel positions : Front: L R
  47. Sampling rate : 48.0 kHz
  48. Frame rate : 46.875 FPS (1024 SPF)
  49. Compression mode : Lossy
  50. Delay relative to video : 9 ms
  51. Stream size : 24.2 MiB (7%)
  52. Title : Main (DTS-HD Master Audio)
  53. Language : English
  54. Default : Yes
  55. Forced : No
  56.  
  57. Audio #2
  58. ID : 3
  59. Format : AAC
  60. Format/Info : Advanced Audio Codec
  61. Format profile : LC
  62. Codec ID : A_AAC-2
  63. Duration : 24 min 18 s
  64. Bit rate : 140 kb/s
  65. Channel(s) : 2 channels
  66. Channel positions : Front: L R
  67. Sampling rate : 48.0 kHz
  68. Frame rate : 46.875 FPS (1024 SPF)
  69. Compression mode : Lossy
  70. Delay relative to video : 9 ms
  71. Stream size : 24.4 MiB (7%)
  72. Title : Main (LPCM)
  73. Language : Japanese
  74. Default : No
  75. Forced : No
  76.  
  77. Text #1
  78. ID : 4
  79. Format : ASS
  80. Codec ID : S_TEXT/ASS
  81. Codec ID/Info : Advanced Sub Station Alpha
  82. Duration : 21 min 55 s
  83. Bit rate : 31.5 kb/s
  84. Count of elements : 15547
  85. Compression mode : Lossless
  86. Stream size : 4.94 MiB (1%)
  87. Title : Signs/Songs (CR/Commie/KamiFS)
  88. Language : English
  89. Default : Yes
  90. Forced : No
  91.  
  92. Text #2
  93. ID : 5
  94. Format : ASS
  95. Codec ID : S_TEXT/ASS
  96. Codec ID/Info : Advanced Sub Station Alpha
  97. Duration : 24 min 8 s
  98. Bit rate : 28.7 kb/s
  99. Count of elements : 15858
  100. Compression mode : Lossless
  101. Stream size : 4.95 MiB (1%)
  102. Title : Subtitles (CR/Commie/KamiFS)
  103. Language : English
  104. Default : No
  105. Forced : No
  106.  
  107. Menu
  108. 00:00:00.000 : en:Prologue
  109. 00:01:36.096 : en:Monologue
  110. 00:02:14.051 : en:Opening
  111. 00:03:44.099 : en:Part A
  112. 00:11:48.082 : en:Part B
  113. 00:21:42.051 : en:Ending
  114. 00:23:12.016 : en:Outro
  115. 00:23:48.052 : en:Preview
RAW Paste Data