Guest User

Untitled

a guest
Nov 24th, 2021
72
Never
Not a member of Pastebin yet? Sign Up, it unlocks many cool features!
  1. General
  2. Unique ID : 57841189876359969969676607794495999156 (0x2B83CED67A936C4C693071327755CCB4)
  3. Complete name : G:\Стеклянный дом.2001.BDRemux.1080p.R.G. Goldenshara.mkv
  4. Format : Matroska
  5. Format version : Version 4
  6. File size : 19.0 GiB
  7. Duration : 1 h 46 min
  8. Overall bit rate mode : Variable
  9. Overall bit rate : 25.7 Mb/s
  10. Movie name : The.Glass.House.2001
  11. Encoded date : UTC 2021-11-25 04:05:51
  12. Writing application : mkvmerge v56.0.0 ('Strasbourg / St. Denis') 64-bit
  13. Writing library : libebml v1.4.2 + libmatroska v1.6.4
  14.  
  15. Video
  16. ID : 1
  17. ID in the original source m : 4113 (0x1011)
  18. Format : AVC
  19. Format/Info : Advanced Video Codec
  20. Format profile : High@L4.1
  21. Format settings : CABAC / 4 Ref Frames
  22. Format settings, CABAC : Yes
  23. Format settings, Reference : 4 frames
  24. Codec ID : V_MPEG4/ISO/AVC
  25. Duration : 1 h 46 min
  26. Bit rate mode : Variable
  27. Bit rate : 20.0 Mb/s
  28. Maximum bit rate : 34.0 Mb/s
  29. Width : 1 920 pixels
  30. Height : 1 080 pixels
  31. Display aspect ratio : 16:9
  32. Frame rate mode : Constant
  33. Frame rate : 23.976 (24000/1001) FPS
  34. Color space : YUV
  35. Chroma subsampling : 4:2:0
  36. Bit depth : 8 bits
  37. Scan type : Progressive
  38. Bits/(Pixel*Frame) : 0.402
  39. Stream size : 14.8 GiB (78%)
  40. Writing library : x264 core 155
  41. Encoding settings : cabac=1 / ref=4 / deblock=1:0:0 / analyse=0x3:0x113 / me=umh / subme=8 / psy=1 / psy_rd=1.00:0.00 / mixed_ref=1 / me_range=16 / chroma_me=1 / trellis=1 / 8x8dct=1 / cqm=0 / deadzone=21,11 / fast_pskip=1 / chroma_qp_offset=-2 / threads=36 / lookahead_threads=6 / sliced_threads=0 / slices=4 / nr=0 / decimate=1 / interlaced=0 / bluray_compat=0 / stitchable=1 / constrained_intra=0 / bframes=3 / b_pyramid=0 / b_adapt=1 / b_bias=0 / direct=3 / weightb=1 / open_gop=0 / weightp=1 / keyint=24 / keyint_min=1 / scenecut=40 / intra_refresh=0 / rc_lookahead=24 / rc=2pass / mbtree=1 / bitrate=20000 / ratetol=1.0 / qcomp=0.60 / qpmin=0 / qpmax=69 / qpstep=4 / cplxblur=20.0 / qblur=0.5 / vbv_maxrate=34000 / vbv_bufsize=20000 / nal_hrd=vbr / filler=0 / ip_ratio=1.40 / aq=3:1.00
  42. Language : English
  43. Default : Yes
  44. Forced : No
  45. Original source medium : Blu-ray
  46.  
  47. Audio #1
  48. ID : 2
  49. Format : AC-3
  50. Format/Info : Audio Coding 3
  51. Commercial name : Dolby Digital
  52. Codec ID : A_AC3
  53. Duration : 1 h 46 min
  54. Bit rate mode : Constant
  55. Bit rate : 448 kb/s
  56. Channel(s) : 6 channels
  57. Channel layout : L R C LFE Ls Rs
  58. Sampling rate : 48.0 kHz
  59. Frame rate : 31.250 FPS (1536 SPF)
  60. Compression mode : Lossy
  61. Stream size : 341 MiB (2%)
  62. Title : русский DVO Видеосервис
  63. Language : Russian
  64. Service kind : Complete Main
  65. Default : Yes
  66. Forced : No
  67.  
  68. Audio #2
  69. ID : 3
  70. Format : AC-3
  71. Format/Info : Audio Coding 3
  72. Commercial name : Dolby Digital
  73. Codec ID : A_AC3
  74. Duration : 1 h 46 min
  75. Bit rate mode : Constant
  76. Bit rate : 192 kb/s
  77. Channel(s) : 2 channels
  78. Channel layout : L R
  79. Sampling rate : 48.0 kHz
  80. Frame rate : 31.250 FPS (1536 SPF)
  81. Compression mode : Lossy
  82. Stream size : 146 MiB (1%)
  83. Title : русский MVO 1-й канал
  84. Language : Russian
  85. Service kind : Complete Main
  86. Default : No
  87. Forced : No
  88.  
  89. Audio #3
  90. ID : 4
  91. Format : AC-3
  92. Format/Info : Audio Coding 3
  93. Commercial name : Dolby Digital
  94. Codec ID : A_AC3
  95. Duration : 1 h 46 min
  96. Bit rate mode : Constant
  97. Bit rate : 192 kb/s
  98. Channel(s) : 2 channels
  99. Channel layout : L R
  100. Sampling rate : 48.0 kHz
  101. Frame rate : 31.250 FPS (1536 SPF)
  102. Compression mode : Lossy
  103. Stream size : 146 MiB (1%)
  104. Title : русский MVO
  105. Language : Russian
  106. Service kind : Complete Main
  107. Default : No
  108. Forced : No
  109.  
  110. Audio #4
  111. ID : 5
  112. Format : AC-3
  113. Format/Info : Audio Coding 3
  114. Commercial name : Dolby Digital
  115. Codec ID : A_AC3
  116. Duration : 1 h 46 min
  117. Bit rate mode : Constant
  118. Bit rate : 192 kb/s
  119. Channel(s) : 2 channels
  120. Channel layout : L R
  121. Sampling rate : 48.0 kHz
  122. Frame rate : 31.250 FPS (1536 SPF)
  123. Compression mode : Lossy
  124. Stream size : 146 MiB (1%)
  125. Title : русский DVO Garsu Pasaulis
  126. Language : Russian
  127. Service kind : Complete Main
  128. Default : No
  129. Forced : No
  130.  
  131. Audio #5
  132. ID : 6
  133. Format : AC-3
  134. Format/Info : Audio Coding 3
  135. Commercial name : Dolby Digital
  136. Codec ID : A_AC3
  137. Duration : 1 h 46 min
  138. Bit rate mode : Constant
  139. Bit rate : 192 kb/s
  140. Channel(s) : 2 channels
  141. Channel layout : L R
  142. Sampling rate : 48.0 kHz
  143. Frame rate : 31.250 FPS (1536 SPF)
  144. Compression mode : Lossy
  145. Stream size : 146 MiB (1%)
  146. Title : русский AVO С. Визгунов
  147. Language : Russian
  148. Service kind : Complete Main
  149. Default : No
  150. Forced : No
  151.  
  152. Audio #6
  153. ID : 7
  154. Format : AC-3
  155. Format/Info : Audio Coding 3
  156. Commercial name : Dolby Digital
  157. Codec ID : A_AC3
  158. Duration : 1 h 46 min
  159. Bit rate mode : Constant
  160. Bit rate : 192 kb/s
  161. Channel(s) : 2 channels
  162. Channel layout : L R
  163. Sampling rate : 48.0 kHz
  164. Frame rate : 31.250 FPS (1536 SPF)
  165. Compression mode : Lossy
  166. Stream size : 146 MiB (1%)
  167. Title : русский AVO А. Карповский
  168. Language : Russian
  169. Service kind : Complete Main
  170. Default : No
  171. Forced : No
  172.  
  173. Audio #7
  174. ID : 8
  175. ID in the original source m : 4353 (0x1101)
  176. Format : DTS XLL
  177. Format/Info : Digital Theater Systems
  178. Commercial name : DTS-HD Master Audio
  179. Codec ID : A_DTS
  180. Duration : 1 h 46 min
  181. Bit rate mode : Variable
  182. Bit rate : 2 432 kb/s
  183. Channel(s) : 6 channels
  184. Channel layout : C L R Ls Rs LFE
  185. Sampling rate : 48.0 kHz
  186. Frame rate : 93.750 FPS (512 SPF)
  187. Bit depth : 16 bits
  188. Compression mode : Lossless
  189. Stream size : 1.80 GiB (9%)
  190. Language : English
  191. Default : No
  192. Forced : No
  193. Original source medium : Blu-ray
  194.  
  195. Audio #8
  196. ID : 9
  197. ID in the original source m : 4352 (0x1100)
  198. Format : DTS XLL
  199. Format/Info : Digital Theater Systems
  200. Commercial name : DTS-HD Master Audio
  201. Codec ID : A_DTS
  202. Duration : 1 h 46 min
  203. Bit rate mode : Variable
  204. Bit rate : 1 892 kb/s
  205. Channel(s) : 6 channels
  206. Channel layout : C L R Ls Rs LFE
  207. Sampling rate : 48.0 kHz
  208. Frame rate : 93.750 FPS (512 SPF)
  209. Bit depth : 16 bits
  210. Compression mode : Lossless
  211. Stream size : 1.40 GiB (7%)
  212. Language : German
  213. Default : No
  214. Forced : No
  215. Original source medium : Blu-ray
  216.  
  217. Text #1
  218. ID : 10
  219. Format : UTF-8
  220. Codec ID : S_TEXT/UTF8
  221. Codec ID/Info : UTF-8 Plain Text
  222. Duration : 1 h 40 min
  223. Bit rate : 73 b/s
  224. Count of elements : 905
  225. Stream size : 53.9 KiB (0%)
  226. Title : русские
  227. Language : Russian
  228. Default : No
  229. Forced : No
  230.  
  231. Text #2
  232. ID : 11
  233. Format : UTF-8
  234. Codec ID : S_TEXT/UTF8
  235. Codec ID/Info : UTF-8 Plain Text
  236. Duration : 1 h 39 min
  237. Bit rate : 49 b/s
  238. Count of elements : 1074
  239. Stream size : 36.4 KiB (0%)
  240. Title : английские
  241. Language : English
  242. Default : No
  243. Forced : No
  244.  
  245. Menu
  246. 00:00:00.000 : Глава 01
  247. 00:13:22.802 : Глава 02
  248. 00:26:21.580 : Глава 03
  249. 00:37:47.265 : Глава 04
  250. 00:48:32.910 : Глава 05
  251. 01:00:50.647 : Глава 06
  252. 01:13:27.403 : Глава 07
  253. 01:29:34.369 : Глава 08
  254. 01:41:24.078 : Глава 09
  255.  
  256.  
RAW Paste Data