Guest User

Untitled

a guest
Nov 23rd, 2021
89
Never
Not a member of Pastebin yet? Sign Up, it unlocks many cool features!
  1. General
  2. Unique ID : 279726215996048429447526092076560853953 (0xD2714F3F6F5FDE47EB93F848B84AABC1)
  3. Complete name : E:\Video\Venom.Let.There.Be.Carnage.2021.WEB-DL.2160p.HDR.seleZen.mkv
  4. Format : Matroska
  5. Format version : Version 4
  6. File size : 11.1 GiB
  7. Duration : 1 h 37 min
  8. Overall bit rate : 16.3 Mb/s
  9. Movie name : Venom Let There Be Carnage 2021 from seleZen
  10. Encoded date : UTC 2021-11-24 01:07:25
  11. Writing application : mkvmerge v59.0.0 ('Shining Star') 64-bit
  12. Writing library : libebml v1.4.2 + libmatroska v1.6.4
  13.  
  14. Video
  15. ID : 1
  16. Format : HEVC
  17. Format/Info : High Efficiency Video Coding
  18. Format profile : Main 10@L5@Main
  19. HDR format : SMPTE ST 2094 App 4, Version 1, HDR10+ Profile B compatible
  20. Codec ID : V_MPEGH/ISO/HEVC
  21. Duration : 1 h 37 min
  22. Bit rate : 14.8 Mb/s
  23. Width : 3 840 pixels
  24. Height : 2 080 pixels
  25. Display aspect ratio : 1.85:1
  26. Frame rate mode : Constant
  27. Frame rate : 23.976 (24000/1001) FPS
  28. Color space : YUV
  29. Chroma subsampling : 4:2:0
  30. Bit depth : 10 bits
  31. Bits/(Pixel*Frame) : 0.077
  32. Stream size : 10.0 GiB (91%)
  33. Language : English
  34. Default : Yes
  35. Forced : No
  36. Color range : Limited
  37. Color primaries : BT.2020
  38. Transfer characteristics : PQ
  39. Matrix coefficients : BT.2020 non-constant
  40. Mastering display color primaries : BT.2020
  41. Mastering display luminance : min: 0.0001 cd/m2, max: 1000 cd/m2
  42. Maximum Content Light Level : 5681 cd/m2
  43. Maximum Frame-Average Light Level : 522 cd/m2
  44.  
  45. Audio #1
  46. ID : 2
  47. Format : E-AC-3
  48. Format/Info : Enhanced AC-3
  49. Commercial name : Dolby Digital Plus
  50. Codec ID : A_EAC3
  51. Duration : 1 h 37 min
  52. Bit rate mode : Constant
  53. Bit rate : 448 kb/s
  54. Channel(s) : 6 channels
  55. Channel layout : L R C LFE Ls Rs
  56. Sampling rate : 48.0 kHz
  57. Frame rate : 31.250 FPS (1536 SPF)
  58. Compression mode : Lossy
  59. Stream size : 312 MiB (3%)
  60. Title : Dub
  61. Language : Russian
  62. Service kind : Complete Main
  63. Default : Yes
  64. Forced : Yes
  65.  
  66. Audio #2
  67. ID : 3
  68. Format : AC-3
  69. Format/Info : Audio Coding 3
  70. Commercial name : Dolby Digital
  71. Codec ID : A_AC3
  72. Duration : 1 h 37 min
  73. Bit rate mode : Constant
  74. Bit rate : 448 kb/s
  75. Channel(s) : 6 channels
  76. Channel layout : L R C LFE Ls Rs
  77. Sampling rate : 48.0 kHz
  78. Frame rate : 31.250 FPS (1536 SPF)
  79. Compression mode : Lossy
  80. Stream size : 312 MiB (3%)
  81. Title : Dub
  82. Language : Russian
  83. Service kind : Complete Main
  84. Default : No
  85. Forced : No
  86.  
  87. Audio #3
  88. ID : 4
  89. Format : E-AC-3
  90. Format/Info : Enhanced AC-3
  91. Commercial name : Dolby Digital Plus
  92. Codec ID : A_EAC3
  93. Duration : 1 h 37 min
  94. Bit rate mode : Constant
  95. Bit rate : 640 kb/s
  96. Channel(s) : 6 channels
  97. Channel layout : L R C LFE Ls Rs
  98. Sampling rate : 48.0 kHz
  99. Frame rate : 31.250 FPS (1536 SPF)
  100. Compression mode : Lossy
  101. Stream size : 447 MiB (4%)
  102. Title : Original
  103. Language : English
  104. Service kind : Complete Main
  105. Default : No
  106. Forced : No
  107.  
  108. Text #1
  109. ID : 5
  110. Format : UTF-8
  111. Codec ID : S_TEXT/UTF8
  112. Codec ID/Info : UTF-8 Plain Text
  113. Duration : 10 min 25 s
  114. Bit rate : 3 b/s
  115. Count of elements : 7
  116. Stream size : 246 Bytes (0%)
  117. Title : Forced
  118. Language : Russian
  119. Default : Yes
  120. Forced : Yes
  121.  
  122. Text #2
  123. ID : 6
  124. Format : UTF-8
  125. Codec ID : S_TEXT/UTF8
  126. Codec ID/Info : UTF-8 Plain Text
  127. Duration : 1 h 36 min
  128. Bit rate : 72 b/s
  129. Count of elements : 1086
  130. Stream size : 50.7 KiB (0%)
  131. Title : Full
  132. Language : Russian
  133. Default : No
  134. Forced : No
  135.  
  136. Text #3
  137. ID : 7
  138. Format : UTF-8
  139. Codec ID : S_TEXT/UTF8
  140. Codec ID/Info : UTF-8 Plain Text
  141. Duration : 1 h 35 min
  142. Bit rate : 60 b/s
  143. Count of elements : 1495
  144. Stream size : 42.3 KiB (0%)
  145. Title : Full
  146. Language : English
  147. Default : No
  148. Forced : No
  149.  
  150. Text #4
  151. ID : 8
  152. Format : UTF-8
  153. Codec ID : S_TEXT/UTF8
  154. Codec ID/Info : UTF-8 Plain Text
  155. Duration : 1 h 36 min
  156. Bit rate : 71 b/s
  157. Count of elements : 1860
  158. Stream size : 50.5 KiB (0%)
  159. Title : SDH
  160. Language : English
  161. Default : No
  162. Forced : No
  163.  
  164. Menu
  165. 00:00:00.000 : Chapter 1
  166. 00:05:25.949 : Chapter 2
  167. 00:11:33.485 : Chapter 3
  168. 00:18:22.434 : Chapter 4
  169. 00:23:00.630 : Chapter 5
  170. 00:30:27.160 : Chapter 6
  171. 00:35:03.769 : Chapter 7
  172. 00:43:09.130 : Chapter 8
  173. 00:47:27.347 : Chapter 9
  174. 00:54:53.418 : Chapter 10
  175. 01:01:32.817 : Chapter 11
  176. 01:06:19.478 : Chapter 12
  177. 01:11:49.184 : Chapter 13
  178. 01:18:03.725 : Chapter 14
  179. 01:21:52.494 : Chapter 15
  180. 01:26:41.326 : Chapter 16
  181.  
  182.  
RAW Paste Data