SHARE
TWEET

Untitled

a guest Feb 20th, 2020 82 Never
Not a member of Pastebin yet? Sign Up, it unlocks many cool features!
  1. Общее
  2. Уникальный идентификатор                 : 88552349234589798271041210000026892055 (0x429E8FE606BD9EE67BD58911BB67F717)
  3. Полное имя                               : The.Big.Knife.1955.BDRip.AVC.mkv
  4. Формат                                   : Matroska
  5. Версия формата                           : Version 4
  6. Размер файла                             : 3,05 Гбайт
  7. Продолжительность                        : 1 ч. 52 м.
  8. Общий поток                              : 3885 Кбит/сек
  9. Название фильма                          : The.Big.Knife.1955.BDRip.AVC by Koenig
  10. Дата кодирования                         : UTC 2020-02-20 10:17:18
  11. Программа кодирования                    : mkvmerge v28.2.0 ('The Awakening') 32-bit
  12. Библиотека кодирования                   : libebml v1.3.6 + libmatroska v1.4.9
  13. Обложка                                  : Yes
  14. Attachments                              : cover.jpg
  15.  
  16. Видео
  17. Идентификатор                            : 1
  18. Формат                                   : AVC
  19. Формат/Информация                        : Advanced Video Codec
  20. Профиль формата                          : High@L4.1
  21. Настройки формата                        : CABAC / 11 Ref Frames
  22. Параметр CABAC формата                   : Да
  23. Параметр RefFrames формата               : 11 кадров
  24. Идентификатор кодека                     : V_MPEG4/ISO/AVC
  25. Продолжительность                        : 1 ч. 52 м.
  26. Битрейт                                  : 3499 Кбит/сек
  27. Ширина                                   : 1024 пикселя
  28. Высота                                   : 552 пикселя
  29. Соотношение сторон                       : 1,85:1
  30. Режим частоты кадров                     : Постоянный
  31. Частота кадров                           : 23,976 (24000/1001) кадра/сек
  32. Цветовое пространство                    : YUV
  33. Субдискретизация насыщенности            : 4:2:0
  34. Битовая глубина                          : 8 бит
  35. Тип развёртки                            : Прогрессивная
  36. Бит/(Пиксели*Кадры)                      : 0.258
  37. Размер потока                            : 2,75 Гбайт (90%)
  38. Заголовок                                : The.Big.Knife.1955.BDRip.AVC
  39. Библиотека кодирования                   : x264 core 157 r2969 d4099dd
  40. Настройки программы                      : cabac=1 / ref=11 / deblock=1:-3:-3 / analyse=0x3:0x133 / me=umh / subme=10 / psy=1 / psy_rd=1.00:0.10 / mixed_ref=1 / me_range=32 / chroma_me=1 / trellis=2 / 8x8dct=1 / cqm=0 / deadzone=21,11 / fast_pskip=0 / chroma_qp_offset=-3 / threads=3 / lookahead_threads=1 / sliced_threads=0 / nr=0 / decimate=1 / interlaced=0 / bluray_compat=0 / constrained_intra=0 / bframes=13 / b_pyramid=2 / b_adapt=2 / b_bias=0 / direct=3 / weightb=1 / open_gop=0 / weightp=2 / keyint=240 / keyint_min=23 / scenecut=40 / intra_refresh=0 / rc_lookahead=40 / rc=2pass / mbtree=1 / bitrate=3499 / ratetol=1.0 / qcomp=0.60 / qpmin=10 / qpmax=51 / qpstep=4 / cplxblur=20.0 / qblur=0.5 / vbv_maxrate=50000 / vbv_bufsize=62500 / nal_hrd=none / filler=0 / ip_ratio=1.40 / aq=1:1.00
  41. Язык                                     : English
  42. Default                                  : Да
  43. Forced                                   : Нет
  44.  
  45. Аудио #1
  46. Идентификатор                            : 2
  47. Формат                                   : AC-3
  48. Формат/Информация                        : Audio Coding 3
  49. Коммерческое название                    : Dolby Digital
  50. Идентификатор кодека                     : A_AC3
  51. Продолжительность                        : 1 ч. 52 м.
  52. Вид битрейта                             : Постоянный
  53. Битрейт                                  : 192 Кбит/сек
  54. Каналы                                   : 2 канала
  55. Channel layout                           : L R
  56. Частота                                  : 48,0 КГц
  57. Частота кадров                           : 31,250 кадров/сек (1536 SPF)
  58. Битовая глубина                          : 16 бит
  59. Метод сжатия                             : С потерями
  60. Размер потока                            : 154 Мбайт (5%)
  61. Заголовок                                : VO - Матвей Кенс
  62. Язык                                     : Russian
  63. ServiceKind/String                       : Complete Main
  64. Default                                  : Да
  65. Forced                                   : Нет
  66.  
  67. Аудио #2
  68. Идентификатор                            : 3
  69. Формат                                   : AC-3
  70. Формат/Информация                        : Audio Coding 3
  71. Коммерческое название                    : Dolby Digital
  72. Идентификатор кодека                     : A_AC3
  73. Продолжительность                        : 1 ч. 52 м.
  74. Вид битрейта                             : Постоянный
  75. Битрейт                                  : 192 Кбит/сек
  76. Каналы                                   : 2 канала
  77. Channel layout                           : L R
  78. Частота                                  : 48,0 КГц
  79. Частота кадров                           : 31,250 кадров/сек (1536 SPF)
  80. Битовая глубина                          : 16 бит
  81. Метод сжатия                             : С потерями
  82. Размер потока                            : 154 Мбайт (5%)
  83. Заголовок                                : Original
  84. Язык                                     : English
  85. ServiceKind/String                       : Complete Main
  86. Default                                  : Нет
  87. Forced                                   : Нет
  88.  
  89. Текст #1
  90. Идентификатор                            : 4
  91. Формат                                   : UTF-8
  92. Идентификатор кодека                     : S_TEXT/UTF8
  93. Идентификатор кодека/Информация          : UTF-8 Plain Text
  94. Продолжительность                        : 1 ч. 51 м.
  95. Битрейт                                  : 130 бит/сек
  96. ElementCount                             : 1639
  97. Размер потока                            : 107 Кбайт (0%)
  98. Заголовок                                : e-ball
  99. Язык                                     : Russian
  100. Default                                  : Да
  101. Forced                                   : Нет
  102.  
  103. Текст #2
  104. Идентификатор                            : 5
  105. Формат                                   : UTF-8
  106. Идентификатор кодека                     : S_TEXT/UTF8
  107. Идентификатор кодека/Информация          : UTF-8 Plain Text
  108. Продолжительность                        : 1 ч. 50 м.
  109. Битрейт                                  : 80 бит/сек
  110. ElementCount                             : 1651
  111. Размер потока                            : 64,8 Кбайт (0%)
  112. Заголовок                                : SDH
  113. Язык                                     : English
  114. Default                                  : Нет
  115. Forced                                   : Нет
  116.  
  117. Меню
  118. 00:00:00.000                             : en:Chapter 1
  119. 00:09:51.049                             : en:Chapter 2
  120. 00:20:35.025                             : en:Chapter 3
  121. 00:25:46.295                             : en:Chapter 4
  122. 00:38:35.230                             : en:Chapter 5
  123. 00:48:24.568                             : en:Chapter 6
  124. 00:56:02.526                             : en:Chapter 7
  125. 01:04:21.900                             : en:Chapter 8
  126. 01:16:59.198                             : en:Chapter 9
  127. 01:26:04.409                             : en:Chapter 10
  128. 01:35:13.583                             : en:Chapter 11
  129. 01:43:31.330                             : en:Chapter 12
RAW Paste Data
We use cookies for various purposes including analytics. By continuing to use Pastebin, you agree to our use of cookies as described in the Cookies Policy. OK, I Understand
Top