Guest User

Hairspray.2007.1080p.BluRay.REMUX.VC-1.DTS-HD.MA.7.1-EPSiLON

a guest
Jun 18th, 2019
35
Never
Not a member of Pastebin yet? Sign Up, it unlocks many cool features!
  1. General
  2. Complete name                            : Hairspray.2007.1080p.BluRay.REMUX.VC-1.DTS-HD.MA.7.1-EPSiLON.mkv
  3. Format                                   : Matroska
  4. Format version                           : Version 4
  5. File size                                : 17.8 GiB
  6. Duration                                 : 1 h 56 min
  7. Overall bit rate mode                    : Variable
  8. Overall bit rate                         : 22.0 Mb/s
  9. Encoded date                             : UTC 2017-12-31 22:03:14
  10. Writing application                      : mkvmerge v19.0.0 ('Brave Captain') 64-bit
  11. Writing library                          : libebml v1.3.5 + libmatroska v1.4.8
  12.  
  13. Video
  14. ID                                       : 1
  15. Format                                   : VC-1
  16. Format profile                           : Advanced@L3
  17. Codec ID                                 : V_MS/VFW/FOURCC / WVC1
  18. Codec ID/Hint                            : Microsoft
  19. Duration                                 : 1 h 56 min
  20. Bit rate                                 : 14.0 Mb/s
  21. Width                                    : 1 920 pixels
  22. Height                                   : 1 080 pixels
  23. Display aspect ratio                     : 16:9
  24. Frame rate mode                          : Constant
  25. Frame rate                               : 23.976 (24000/1001) FPS
  26. Color space                              : YUV
  27. Chroma subsampling                       : 4:2:0
  28. Bit depth                                : 8 bits
  29. Scan type                                : Progressive
  30. Compression mode                         : Lossy
  31. Bits/(Pixel*Frame)                       : 0.281
  32. Stream size                              : 11.3 GiB (64%)
  33. Title                                    : VC-1 Video / 13991 kbps / 1080p / 23.976 fps / 16:9 / Advanced Profile 3
  34. Language                                 : English
  35. Default                                  : Yes
  36. Forced                                   : No
  37.  
  38. Audio #1
  39. ID                                       : 2
  40. Format                                   : DTS XLL
  41. Format/Info                              : Digital Theater Systems
  42. Commercial name                          : DTS-HD Master Audio
  43. Codec ID                                 : A_DTS
  44. Duration                                 : 1 h 56 min
  45. Bit rate mode                            : Variable
  46. Bit rate                                 : 5 579 kb/s
  47. Channel(s)                               : 8 channels
  48. Channel layout                           : C L R Ls Rs LFE Lw Rw
  49. Sampling rate                            : 48.0 kHz
  50. Frame rate                               : 93.750 FPS (512 SPF)
  51. Bit depth                                : 24 bits
  52. Compression mode                         : Lossless
  53. Stream size                              : 4.53 GiB (25%)
  54. Title                                    : DTS-HD Master Audio / 7.1 / 48 kHz / 5579 kbps / 24-bit
  55. Language                                 : English
  56. Default                                  : Yes
  57. Forced                                   : No
  58.  
  59. Audio #2
  60. ID                                       : 3
  61. Format                                   : DTS
  62. Format/Info                              : Digital Theater Systems
  63. Codec ID                                 : A_DTS
  64. Duration                                 : 1 h 56 min
  65. Bit rate mode                            : Constant
  66. Bit rate                                 : 1 509 kb/s
  67. Channel(s)                               : 6 channels
  68. Channel layout                           : C L R Ls Rs LFE
  69. Sampling rate                            : 48.0 kHz
  70. Frame rate                               : 93.750 FPS (512 SPF)
  71. Bit depth                                : 24 bits
  72. Compression mode                         : Lossy
  73. Stream size                              : 1.22 GiB (7%)
  74. Title                                    : Commentary by Director Adam Shankman, Actress Nikki Blonsky and Producers Craig Zadan and Neil Meron
  75. Language                                 : English
  76. Default                                  : No
  77. Forced                                   : No
  78.  
  79. Audio #3
  80. ID                                       : 4
  81. Format                                   : DTS
  82. Format/Info                              : Digital Theater Systems
  83. Codec ID                                 : A_DTS
  84. Duration                                 : 1 h 56 min
  85. Bit rate mode                            : Constant
  86. Bit rate                                 : Open
  87. Channel(s)                               : 2 channels
  88. Channel layout                           : L R
  89. Sampling rate                            : 48.0 kHz
  90. Frame rate                               : 93.750 FPS (512 SPF)
  91. Bit depth                                : 24 bits
  92. Compression mode                         : Lossy
  93. Stream size                              : 212 MiB (1%)
  94. Title                                    : Commentary by Director Adam Shankman and Actress Nikki Blonsky
  95. Language                                 : English
  96. Default                                  : No
  97. Forced                                   : No
  98.  
  99. Audio #4
  100. ID                                       : 5
  101. Format                                   : DTS
  102. Format/Info                              : Digital Theater Systems
  103. Codec ID                                 : A_DTS
  104. Duration                                 : 1 h 56 min
  105. Bit rate mode                            : Constant
  106. Bit rate                                 : Open
  107. Channel(s)                               : 2 channels
  108. Channel layout                           : L R
  109. Sampling rate                            : 48.0 kHz
  110. Frame rate                               : 93.750 FPS (512 SPF)
  111. Bit depth                                : 24 bits
  112. Compression mode                         : Lossy
  113. Stream size                              : 212 MiB (1%)
  114. Title                                    : Commentary by Producers Craig Zadan and Neil Meron
  115. Language                                 : English
  116. Default                                  : No
  117. Forced                                   : No
  118.  
  119. Text #1
  120. ID                                       : 6
  121. Format                                   : PGS
  122. Codec ID                                 : S_HDMV/PGS
  123. Codec ID/Info                            : Picture based subtitle format used on BDs/HD-DVDs
  124. Duration                                 : 1 h 55 min
  125. Bit rate                                 : 67.5 kb/s
  126. Count of elements                        : 5248
  127. Stream size                              : 55.6 MiB (0%)
  128. Title                                    : SDH
  129. Language                                 : English
  130. Default                                  : No
  131. Forced                                   : No
  132.  
  133. Text #2
  134. ID                                       : 7
  135. Format                                   : PGS
  136. Codec ID                                 : S_HDMV/PGS
  137. Codec ID/Info                            : Picture based subtitle format used on BDs/HD-DVDs
  138. Duration                                 : 1 h 53 min
  139. Bit rate                                 : 254 kb/s
  140. Count of elements                        : 6812
  141. Stream size                              : 207 MiB (1%)
  142. Title                                    : Sing-Along
  143. Language                                 : English
  144. Default                                  : No
  145. Forced                                   : No
  146.  
  147. Text #3
  148. ID                                       : 8
  149. Format                                   : PGS
  150. Codec ID                                 : S_HDMV/PGS
  151. Codec ID/Info                            : Picture based subtitle format used on BDs/HD-DVDs
  152. Duration                                 : 1 h 54 min
  153. Bit rate                                 : 62.0 kb/s
  154. Count of elements                        : 5062
  155. Stream size                              : 50.9 MiB (0%)
  156. Title                                    : Latin American
  157. Language                                 : Spanish
  158. Default                                  : No
  159. Forced                                   : No
  160.  
  161. Menu
  162. 00:00:00.000                             : en:Good Morning Baltimore
  163. 00:06:17.002                             : en:The Nicest Kids in Town
  164. 00:11:34.944                             : en:"I Want to Be Famous"
  165. 00:16:29.071                             : en:Meet Miss Baltimore Crabs
  166. 00:20:30.813                             : en:Detention Groove
  167. 00:24:04.443                             : en:I Can Hear the Bells
  168. 00:28:10.647                             : en:Ladies' Choice
  169. 00:33:32.969                             : en:The New Girl in Town
  170. 00:37:24.492                             : en:Welcome to the 60's
  171. 00:46:35.376                             : en:Run and Tell That
  172. 00:52:14.757                             : en:Big, Blonde and Beautiful
  173. 00:57:47.714                             : en:Toy Shop Seduction
  174. 01:07:57.824                             : en:Timeless to Me
  175. 01:13:29.655                             : en:I Know Where I've Been
  176. 01:18:14.273                             : en:On the Run From the Law
  177. 01:24:20.305                             : en:Without Love
  178. 01:28:21.963                             : en:In the Can
  179. 01:35:14.167                             : en:Miss Teenage Hairspray Dance Off
  180. 01:41:49.562                             : en:You Can't Stop the Beat
  181. 01:46:17.413                             : en:End Credits
RAW Paste Data