Henry_Kr

NTM-2006

Dec 12th, 2021
39
Never
Not a member of Pastebin yet? Sign Up, it unlocks many cool features!
  1. Video
  2. ID : 1
  3. Format : AVC
  4. Format/Info : Advanced Video Codec
  5. Format profile : High 10@L4.2
  6. Format settings : CABAC / 4 Ref Frames
  7. Format settings, CABAC : Yes
  8. Format settings, Reference : 4 frames
  9. Codec ID : V_MPEG4/ISO/AVC
  10. Duration : 1 h 35 min
  11. Bit rate : 6 037 kb/s
  12. Width : 1 920 pixels
  13. Height : 1 038 pixels
  14. Display aspect ratio : 1.85:1
  15. Frame rate mode : Variable
  16. Frame rate : 23.976 (24000/1001) FPS
  17. Original frame rate : 11.905 FPS
  18. Color space : YUV
  19. Chroma subsampling : 4:2:0
  20. Bit depth : 10 bits
  21. Scan type : Progressive
  22. Bits/(Pixel*Frame) : 0.126
  23. Stream size : 4.01 GiB (66%)
  24. Title : Naruto.Guardians.of.The.Crescent.Moon.Kingdom.2006.1080p.BluRay.[CartoonNOW]
  25. Language : Japanese
  26. Default : Yes
  27. Forced : No
  28. Color range : Limited
  29. Color primaries : BT.709
  30. Transfer characteristics : BT.709
  31. Matrix coefficients : BT.709
  32.  
  33. Audio #1
  34. ID : 2
  35. Format : AC-3
  36. Format/Info : Audio Coding 3
  37. Commercial name : Dolby Digital
  38. Codec ID : A_AC3
  39. Duration : 1 h 35 min
  40. Bit rate mode : Constant
  41. Bit rate : 192 kb/s
  42. Channel(s) : 2 channels
  43. Channel layout : L R
  44. Sampling rate : 48.0 kHz
  45. Frame rate : 31.250 FPS (1536 SPF)
  46. Compression mode : Lossy
  47. Stream size : 130 MiB (2%)
  48. Title : AC3 2.0
  49. Language : Portuguese
  50. Service kind : Complete Main
  51. Default : Yes
  52. Forced : No
  53.  
  54. Audio #2
  55. ID : 3
  56. Format : DTS XLL
  57. Format/Info : Digital Theater Systems
  58. Commercial name : DTS-HD Master Audio
  59. Codec ID : A_DTS
  60. Duration : 1 h 35 min
  61. Bit rate mode : Variable
  62. Bit rate : 2 932 kb/s
  63. Channel(s) : 6 channels
  64. Channel layout : C L R Ls Rs LFE
  65. Sampling rate : 48.0 kHz
  66. Frame rate : 93.750 FPS (512 SPF)
  67. Bit depth : 24 bits
  68. Compression mode : Lossless
  69. Delay relative to video : 16 ms
  70. Stream size : 1.95 GiB (32%)
  71. Title : DTS 5.1
  72. Language : Japanese
  73. Default : No
  74. Forced : No
  75.  
  76. Text
  77. ID : 4
  78. Format : ASS
  79. Codec ID : S_TEXT/ASS
  80. Codec ID/Info : Advanced Sub Station Alpha
  81. Duration : 1 h 34 min
  82. Bit rate : 74 b/s
  83. Count of elements : 941
  84. Compression mode : Lossless
  85. Stream size : 51.2 KiB (0%)
  86. Title : Completa
  87. Language : Portuguese
  88. Default : No
  89. Forced : No
  90.  
  91. Menu
  92. 00:00:00.000 : :Chapter 1
  93. 00:04:14.421 : :Chapter 2
  94. 00:08:08.488 : :Chapter 3
  95. 00:14:04.677 : :Chapter 4
  96. 00:21:01.927 : :Chapter 5
  97. 00:32:23.775 : :Chapter 6
  98. 00:37:29.080 : :Chapter 7
  99. 00:44:36.507 : :Chapter 8
  100. 00:47:19.337 : :Chapter 9
  101. 00:56:18.709 : :Chapter 10
  102. 01:05:28.258 : :Chapter 11
  103. 01:10:03.032 : :Chapter 12
  104. 01:21:35.057 : :Chapter 13
  105. 01:30:34.429 : :Chapter 14
RAW Paste Data