Guest User

Untitled

a guest
Jan 14th, 2017
70
Never
Not a member of Pastebin yet? Sign Up, it unlocks many cool features!
  1. Общее
  2. Уникальный идентификатор : 194513082413188686388981191648707577855 (0x9255DB645116F8E0A41A0416661B87FF)
  3. Полное имя : F:\Video\Masterminds.2016.BDRip.1080p.ExKinoRay.mkv
  4. Формат : Matroska
  5. Версия формата : Version 4 / Version 2
  6. Размер файла : 8,32 Гбайт
  7. Продолжительность : 1 ч. 34 м.
  8. Общий поток : 12,6 Мбит/сек
  9. Название фильма : Masterminds ***селезень***
  10. Дата кодирования : UTC 2017-01-14 19:43:55
  11. Программа кодирования : mkvmerge v8.3.0 ('Over the Horizon') 64bit
  12. Библиотека кодирования : libebml v1.3.1 + libmatroska v1.4.2
  13. Обложка : Yes
  14. Attachments : cover.jpg
  15.  
  16. Видео
  17. Идентификатор : 1
  18. Формат : AVC
  19. Формат/Информация : Advanced Video Codec
  20. Профиль формата : High@L4.1
  21. Параметр CABAC формата : Да
  22. Параметр ReFrames формата : 4 кадра
  23. Идентификатор кодека : V_MPEG4/ISO/AVC
  24. Продолжительность : 1 ч. 34 м.
  25. Битрейт : 10,5 Мбит/сек
  26. Ширина : 1920 пикселей
  27. Высота : 1080 пикселей
  28. Соотношение сторон : 16:9
  29. Режим частоты кадров : Постоянный
  30. Частота кадров : 23,976 (24000/1001) кадра/сек
  31. Цветовое пространство : YUV
  32. Субдискретизация насыщенности : 4:2:0
  33. Битовая глубина : 8 бит
  34. Тип развёртки : Прогрессивная
  35. Бит/(Пиксели*Кадры) : 0.211
  36. Размер потока : 6,94 Гбайт (83%)
  37. Заголовок : Masterminds ***селезень***
  38. Библиотека кодирования : x264 core 148 r2665kMod a01e339
  39. Настройки программы : cabac=1 / ref=4 / deblock=1:-3:-3 / analyse=0x3:0x133 / me=umh / subme=11 / psy=1 / fade_compensate=0.00 / psy_rd=0.85:0.00 / mixed_ref=1 / me_range=48 / chroma_me=1 / trellis=2 / 8x8dct=1 / cqm=0 / deadzone=21,11 / fast_pskip=0 / chroma_qp_offset=-2 / threads=24 / lookahead_threads=4 / sliced_threads=0 / nr=0 / decimate=0 / interlaced=0 / bluray_compat=0 / constrained_intra=0 / fgo=0 / bframes=8 / b_pyramid=2 / b_adapt=2 / b_bias=0 / direct=3 / weightb=1 / open_gop=0 / weightp=2 / keyint=240 / keyint_min=24 / scenecut=40 / intra_refresh=0 / rc=2pass / mbtree=0 / bitrate=10500 / ratetol=1.0 / qcomp=0.70 / qpmin=0 / qpmax=69 / qpstep=4 / cplxblur=20.0 / qblur=0.5 / ip_ratio=1.20 / pb_ratio=1.20 / aq=3:0.80
  40. Язык : English
  41. Default : Да
  42. Forced : Нет
  43.  
  44. Аудио #1
  45. Идентификатор : 2
  46. Формат : AC-3
  47. Формат/Информация : Audio Coding 3
  48. Расширение режима : CM (complete main)
  49. Параметр Endianness формата : Big
  50. Идентификатор кодека : A_AC3
  51. Продолжительность : 1 ч. 34 м.
  52. Вид битрейта : Постоянный
  53. Битрейт : 384 Кбит/сек
  54. Каналы : 6 каналов
  55. Расположение каналов : Front: L C R, Side: L R, LFE
  56. Частота : 48,0 КГц
  57. Частота кадров : 31,250 кадров/сек (1536 spf)
  58. Битовая глубина : 16 бит
  59. Метод сжатия : С потерями
  60. Размер потока : 260 Мбайт (3%)
  61. Заголовок : iTunes
  62. Язык : Russian
  63. Default : Да
  64. Forced : Нет
  65.  
  66. Аудио #2
  67. Идентификатор : 3
  68. Формат : AC-3
  69. Формат/Информация : Audio Coding 3
  70. Расширение режима : CM (complete main)
  71. Параметр Endianness формата : Big
  72. Идентификатор кодека : A_AC3
  73. Продолжительность : 1 ч. 34 м.
  74. Вид битрейта : Постоянный
  75. Битрейт : 192 Кбит/сек
  76. Каналы : 2 канала
  77. Расположение каналов : Front: L R
  78. Частота : 48,0 КГц
  79. Частота кадров : 31,250 кадров/сек (1536 spf)
  80. Битовая глубина : 16 бит
  81. Метод сжатия : С потерями
  82. Размер потока : 130 Мбайт (2%)
  83. Язык : Ukrainian
  84. Default : Нет
  85. Forced : Нет
  86.  
  87. Аудио #3
  88. Идентификатор : 4
  89. Формат : DTS
  90. Формат/Информация : Digital Theater Systems
  91. Режим : 16
  92. Параметр Endianness формата : Big
  93. Идентификатор кодека : A_DTS
  94. Продолжительность : 1 ч. 34 м.
  95. Вид битрейта : Постоянный
  96. Битрейт : 1509 Кбит/сек
  97. Каналы : 6 каналов
  98. Расположение каналов : Front: L C R, Side: L R, LFE
  99. Частота : 48,0 КГц
  100. Частота кадров : 93,750 кадра/сек (512 spf)
  101. Битовая глубина : 24 бит
  102. Метод сжатия : С потерями
  103. Размер потока : 1022 Мбайт (12%)
  104. Язык : English
  105. Default : Нет
  106. Forced : Нет
  107.  
  108. Меню
  109. 00:00:00.000 : en:00:00:00.000
  110. 00:06:37.188 : en:00:06:37.188
  111. 00:10:15.240 : en:00:10:15.240
  112. 00:16:56.432 : en:00:16:56.432
  113. 00:28:08.353 : en:00:28:08.353
  114. 00:31:30.138 : en:00:31:30.138
  115. 00:37:39.716 : en:00:37:39.716
  116. 00:45:28.476 : en:00:45:28.476
  117. 00:50:03.167 : en:00:50:03.167
  118. 00:57:30.906 : en:00:57:30.906
  119. 01:02:59.609 : en:01:02:59.609
  120. 01:07:59.158 : en:01:07:59.158
  121. 01:14:12.782 : en:01:14:12.782
  122. 01:20:20.024 : en:01:20:20.024
  123. 01:23:22.581 : en:01:23:22.581
  124. 01:27:25.657 : en:01:27:25.657
RAW Paste Data

Adblocker detected! Please consider disabling it...

We've detected AdBlock Plus or some other adblocking software preventing Pastebin.com from fully loading.

We don't have any obnoxious sound, or popup ads, we actively block these annoying types of ads!

Please add Pastebin.com to your ad blocker whitelist or disable your adblocking software.

×