iMN0

melody.1971.1080p.bluray.x264-usury.mkv

Jul 15th, 2021
99
Never
Not a member of Pastebin yet? Sign Up, it unlocks many cool features!
  1. General
  2. Unique ID : 211163120453434533344976747934650524967 (0x9EDC89A59A60BE8B923557713B70E527)
  3. Complete name : melody.1971.1080p.bluray.x264-usury.mkv
  4. Format : Matroska
  5. Format version : Version 4
  6. File size : 9.84 GiB
  7. Duration : 1 h 46 min
  8. Overall bit rate mode : Variable
  9. Overall bit rate : 13.2 Mb/s
  10. Encoded date : UTC 2017-05-22 13:23:31
  11. Writing application : mkvmerge v8.3.0 ('Over the Horizon') 64bit
  12. Writing library : libebml v1.3.1 + libmatroska v1.4.2
  13.  
  14. Video
  15. ID : 1
  16. Format : AVC
  17. Format/Info : Advanced Video Codec
  18. Format profile : High@L4.1
  19. Format settings : CABAC / 4 Ref Frames
  20. Format settings, CABAC : Yes
  21. Format settings, Reference frames : 4 frames
  22. Codec ID : V_MPEG4/ISO/AVC
  23. Duration : 1 h 46 min
  24. Bit rate : 12.0 Mb/s
  25. Width : 1 920 pixels
  26. Height : 1 040 pixels
  27. Display aspect ratio : 1.85:1
  28. Frame rate mode : Constant
  29. Frame rate : 24.000 FPS
  30. Color space : YUV
  31. Chroma subsampling : 4:2:0
  32. Bit depth : 8 bits
  33. Scan type : Progressive
  34. Bits/(Pixel*Frame) : 0.251
  35. Stream size : 8.96 GiB (91%)
  36. Writing library : x264 core 150 r2829 d1fe6fd
  37. Encoding settings : cabac=1 / ref=4 / deblock=1:-3:-3 / analyse=0x3:0x133 / me=umh / subme=9 / psy=1 / psy_rd=1.00:0.00 / mixed_ref=1 / me_range=16 / chroma_me=1 / trellis=2 / 8x8dct=1 / cqm=0 / deadzone=21,11 / fast_pskip=0 / chroma_qp_offset=-2 / threads=9 / lookahead_threads=1 / sliced_threads=0 / nr=0 / decimate=1 / interlaced=0 / bluray_compat=0 / constrained_intra=0 / bframes=3 / b_pyramid=2 / b_adapt=1 / b_bias=0 / direct=3 / weightb=1 / open_gop=0 / weightp=2 / keyint=250 / keyint_min=24 / scenecut=40 / intra_refresh=0 / rc_lookahead=50 / rc=2pass / mbtree=1 / bitrate=12023 / ratetol=1.0 / qcomp=0.60 / qpmin=0 / qpmax=69 / qpstep=4 / cplxblur=20.0 / qblur=0.5 / ip_ratio=1.40 / aq=1:1.00
  38. Language : English
  39. Default : Yes
  40. Forced : No
  41.  
  42. Audio
  43. ID : 2
  44. Format : FLAC
  45. Format/Info : Free Lossless Audio Codec
  46. Codec ID : A_FLAC
  47. Duration : 1 h 46 min
  48. Bit rate mode : Variable
  49. Bit rate : 1 167 kb/s
  50. Channel(s) : 2 channels
  51. Channel layout : L R
  52. Sampling rate : 48.0 kHz
  53. Frame rate : 11.719 FPS (4096 SPF)
  54. Bit depth : 24 bits
  55. Compression mode : Lossless
  56. Stream size : 891 MiB (9%)
  57. Writing library : libFLAC 1.2.1 (UTC 2007-09-17)
  58. Language : English
  59. Default : Yes
  60. Forced : No
  61.  
  62. Text #1
  63. ID : 3
  64. Format : UTF-8
  65. Codec ID : S_TEXT/UTF8
  66. Codec ID/Info : UTF-8 Plain Text
  67. Duration : 1 h 45 min
  68. Bit rate : 51 b/s
  69. Count of elements : 1179
  70. Stream size : 39.9 KiB (0%)
  71. Title : English
  72. Language : English
  73. Default : No
  74. Forced : No
  75.  
  76. Text #2
  77. ID : 4
  78. Format : UTF-8
  79. Codec ID : S_TEXT/UTF8
  80. Codec ID/Info : UTF-8 Plain Text
  81. Duration : 1 h 45 min
  82. Bit rate : 57 b/s
  83. Count of elements : 1381
  84. Stream size : 44.6 KiB (0%)
  85. Title : SDH
  86. Language : English
  87. Default : No
  88. Forced : No
  89.  
  90. Menu
  91. 00:00:00.000 : en:00:00:00.000
  92. 00:12:54.167 : en:00:12:54.167
  93. 00:23:30.708 : en:00:23:30.708
  94. 00:36:29.625 : en:00:36:29.625
  95. 00:51:19.250 : en:00:51:19.250
  96. 01:02:54.917 : en:01:02:54.917
  97. 01:15:15.333 : en:01:15:15.333
  98. 01:31:59.583 : en:01:31:59.583
RAW Paste Data