Henry_Kr

ATLAB-S01

Oct 2nd, 2019
380
Never
Not a member of Pastebin yet? Sign Up, it unlocks many cool features!
  1. Video
  2. ID : 1
  3. Format : AVC
  4. Format/Info : Advanced Video Codec
  5. Format profile : High@L4
  6. Format settings : CABAC / 5 Ref Frames
  7. Format settings, CABAC : Yes
  8. Format settings, Reference : 5 frames
  9. Muxing mode : Header stripping
  10. Codec ID : V_MPEG4/ISO/AVC
  11. Duration : 23 min 40 s
  12. Bit rate : 2 840 kb/s
  13. Width : 1 440 pixels
  14. Height : 1 080 pixels
  15. Display aspect ratio : 4:3
  16. Frame rate mode : Constant
  17. Frame rate : 23.976 (24000/1001) FPS
  18. Color space : YUV
  19. Chroma subsampling : 4:2:0
  20. Bit depth : 8 bits
  21. Scan type : Progressive
  22. Bits/(Pixel*Frame) : 0.076
  23. Stream size : 470 MiB (86%)
  24. Title : Avatar.The.Last.Airbender.S01E01.O.Garoto.no.Iceberg.1080p.Bluray.[CartoonNOW]
  25. Writing library : x264 core 148 r2708 86b7198
  26. Language : English
  27. Default : Yes
  28. Forced : No
  29. Color range : Limited
  30. Color primaries : BT.709
  31. Transfer characteristics : BT.709
  32. Matrix coefficients : BT.709
  33.  
  34. Audio #1
  35. ID : 2
  36. Format : AC-3
  37. Format/Info : Audio Coding 3
  38. Commercial name : Dolby Digital
  39. Muxing mode : Header stripping
  40. Codec ID : A_AC3
  41. Duration : 23 min 40 s
  42. Bit rate mode : Constant
  43. Bit rate : 192 kb/s
  44. Channel(s) : 2 channels
  45. Channel layout : L R
  46. Sampling rate : 44.1 kHz
  47. Frame rate : 28.711 FPS (1536 SPF)
  48. Bit depth : 16 bits
  49. Compression mode : Lossy
  50. Stream size : 32.5 MiB (6%)
  51. Title : AC3 - 2.0
  52. Language : Portuguese
  53. Service kind : Complete Main
  54. Default : Yes
  55. Forced : No
  56.  
  57. Audio #2
  58. ID : 3
  59. Format : AC-3
  60. Format/Info : Audio Coding 3
  61. Commercial name : Dolby Digital
  62. Muxing mode : Header stripping
  63. Codec ID : A_AC3
  64. Duration : 23 min 40 s
  65. Bit rate mode : Constant
  66. Bit rate : 192 kb/s
  67. Channel(s) : 2 channels
  68. Channel layout : L R
  69. Sampling rate : 48.0 kHz
  70. Frame rate : 31.250 FPS (1536 SPF)
  71. Bit depth : 16 bits
  72. Compression mode : Lossy
  73. Delay relative to video : 5 ms
  74. Stream size : 32.5 MiB (6%)
  75. Title : AC3 - 2.0
  76. Language : English
  77. Service kind : Complete Main
  78. Default : No
  79. Forced : No
  80.  
  81. Text
  82. ID : 4
  83. Format : UTF-8
  84. Codec ID : S_TEXT/UTF8
  85. Codec ID/Info : UTF-8 Plain Text
  86. Title : SRT
  87. Language : Portuguese
  88. Default : No
  89. Forced : No
  90.  
  91. Menu
  92. 00:00:00.000 : :Chapter 1
  93. 00:06:50.911 : :Chapter 2
  94. 00:11:53.922 : :Chapter 3
  95. 00:17:19.497 : :Chapter 4
  96. 00:22:52.955 : :Chapter 5
RAW Paste Data