GrabHD

Untitled

Feb 20th, 2020
109
Never
Not a member of Pastebin yet? Sign Up, it unlocks many cool features!
  1. Общее
  2. Уникальный идентификатор : 226997947190884188598708540668555782650 (0xAAC636E1AB43692F8C0C88554F4769FA)
  3. Полное имя : Showtime.2002.WEB-DL.1080p.mkv
  4. Формат : Matroska
  5. Версия формата : Version 4 / Version 2
  6. Размер файла : 4,88 Гбайт
  7. Продолжительность : 1 ч. 35 м.
  8. Режим общего битрейта : Переменный
  9. Общий поток : 7324 Кбит/сек
  10. Название фильма : Showtime.2002.WEB-DL.1080p
  11. Дата кодирования : UTC 2017-02-11 13:30:22
  12. Программа кодирования : mkvmerge v7.9.0 ('Birds') 32bit
  13. Библиотека кодирования : libebml v1.3.1 + libmatroska v1.4.2
  14.  
  15. Видео
  16. Идентификатор : 1
  17. Формат : AVC
  18. Формат/Информация : Advanced Video Codec
  19. Профиль формата : Main@L4
  20. Параметр CABAC формата : Да
  21. Параметр RefFrames формата : 2 кадра
  22. Идентификатор кодека : V_MPEG4/ISO/AVC
  23. Продолжительность : 1 ч. 35 м.
  24. Вид битрейта : Переменный
  25. Битрейт : 5274 Кбит/сек
  26. Ширина : 1920 пикселей
  27. Высота : 1080 пикселей
  28. Соотношение сторон : 16:9
  29. Режим частоты кадров : Постоянный
  30. Частота кадров : 23,976 (23976/1000) кадра/сек
  31. Частота кадров в оригинале : 23,976 (24000/1001) кадра/сек
  32. Цветовое пространство : YUV
  33. Субдискретизация насыщенности : 4:2:0
  34. Битовая глубина : 8 бит
  35. Тип развёртки : Прогрессивная
  36. Бит/(Пиксели*Кадры) : 0.106
  37. Размер потока : 3,51 Гбайт (72%)
  38. Заголовок : Showtime.2002.WEB-DL.1080p
  39. Язык : English
  40. Default : Да
  41. Forced : Нет
  42.  
  43. Аудио #1
  44. Идентификатор : 2
  45. Формат : AC-3
  46. Формат/Информация : Audio Coding 3
  47. Параметр Endianness формата : Big
  48. Идентификатор кодека : A_AC3
  49. Продолжительность : 1 ч. 35 м.
  50. Вид битрейта : Постоянный
  51. Битрейт : 384 Кбит/сек
  52. Каналы : 6 каналов
  53. Расположение каналов : Front: L C R, Side: L R, LFE
  54. Частота : 48,0 КГц
  55. Частота кадров : 31,250 кадров/сек (1536 SPF)
  56. Битовая глубина : 16 бит
  57. Метод сжатия : С потерями
  58. Размер потока : 262 Мбайт (5%)
  59. Заголовок : Дублированный (R5)
  60. Язык : Russian
  61. Default : Да
  62. Forced : Нет
  63.  
  64. Аудио #2
  65. Идентификатор : 3
  66. Формат : AC-3
  67. Формат/Информация : Audio Coding 3
  68. Параметр Endianness формата : Big
  69. Идентификатор кодека : A_AC3
  70. Продолжительность : 1 ч. 35 м.
  71. Вид битрейта : Постоянный
  72. Битрейт : 384 Кбит/сек
  73. Каналы : 6 каналов
  74. Расположение каналов : Front: L C R, Side: L R, LFE
  75. Частота : 48,0 КГц
  76. Частота кадров : 31,250 кадров/сек (1536 SPF)
  77. Битовая глубина : 16 бит
  78. Метод сжатия : С потерями
  79. Размер потока : 262 Мбайт (5%)
  80. Заголовок : Профессиональный двухголосый
  81. Язык : Russian
  82. Default : Нет
  83. Forced : Нет
  84.  
  85. Аудио #3
  86. Идентификатор : 4
  87. Формат : AC-3
  88. Формат/Информация : Audio Coding 3
  89. Параметр Endianness формата : Big
  90. Идентификатор кодека : A_AC3
  91. Продолжительность : 1 ч. 35 м.
  92. Вид битрейта : Постоянный
  93. Битрейт : 448 Кбит/сек
  94. Каналы : 6 каналов
  95. Расположение каналов : Front: L C R, Side: L R, LFE
  96. Частота : 48,0 КГц
  97. Частота кадров : 31,250 кадров/сек (1536 SPF)
  98. Битовая глубина : 16 бит
  99. Метод сжатия : С потерями
  100. Размер потока : 306 Мбайт (6%)
  101. Заголовок : Одноголосый (В. Рукин)
  102. Язык : Russian
  103. Default : Нет
  104. Forced : Нет
  105.  
  106. Аудио #4
  107. Идентификатор : 5
  108. Формат : AC-3
  109. Формат/Информация : Audio Coding 3
  110. Параметр Endianness формата : Big
  111. Идентификатор кодека : A_AC3
  112. Продолжительность : 1 ч. 35 м.
  113. Вид битрейта : Постоянный
  114. Битрейт : 192 Кбит/сек
  115. Каналы : 2 канала
  116. Расположение каналов : Front: L R
  117. Частота : 48,0 КГц
  118. Частота кадров : 31,250 кадров/сек (1536 SPF)
  119. Битовая глубина : 16 бит
  120. Метод сжатия : С потерями
  121. Размер потока : 131 Мбайт (3%)
  122. Заголовок : Авторский одноголосый (С. Визгунов)
  123. Язык : Russian
  124. Default : Нет
  125. Forced : Нет
  126.  
  127. Аудио #5
  128. Идентификатор : 6
  129. Формат : AC-3
  130. Формат/Информация : Audio Coding 3
  131. Параметр Endianness формата : Big
  132. Идентификатор кодека : A_AC3
  133. Продолжительность : 1 ч. 35 м.
  134. Вид битрейта : Постоянный
  135. Битрейт : 192 Кбит/сек
  136. Каналы : 2 канала
  137. Расположение каналов : Front: L R
  138. Частота : 48,0 КГц
  139. Частота кадров : 31,250 кадров/сек (1536 SPF)
  140. Битовая глубина : 16 бит
  141. Метод сжатия : С потерями
  142. Размер потока : 131 Мбайт (3%)
  143. Заголовок : Одноголосый (Славянин)
  144. Язык : Russian
  145. Default : Нет
  146. Forced : Нет
  147.  
  148. Аудио #6
  149. Идентификатор : 7
  150. Формат : AC-3
  151. Формат/Информация : Audio Coding 3
  152. Параметр Endianness формата : Big
  153. Идентификатор кодека : A_AC3
  154. Продолжительность : 1 ч. 35 м.
  155. Вид битрейта : Постоянный
  156. Битрейт : 448 Кбит/сек
  157. Каналы : 6 каналов
  158. Расположение каналов : Front: L C R, Side: L R, LFE
  159. Частота : 48,0 КГц
  160. Частота кадров : 31,250 кадров/сек (1536 SPF)
  161. Битовая глубина : 16 бит
  162. Метод сжатия : С потерями
  163. Размер потока : 306 Мбайт (6%)
  164. Язык : English
  165. Default : Нет
  166. Forced : Нет
  167.  
  168. Текст #1
  169. Идентификатор : 8
  170. Формат : UTF-8
  171. Идентификатор кодека : S_TEXT/UTF8
  172. Идентификатор кодека/Информация : UTF-8 Plain Text
  173. Продолжительность : 1 ч. 30 м.
  174. Битрейт : 88 бит/сек
  175. ElementCount : 1097
  176. Размер потока : 58,3 Кбайт (0%)
  177. Заголовок : full
  178. Язык : Russian
  179. Default : Нет
  180. Forced : Нет
  181.  
  182. Текст #2
  183. Идентификатор : 9
  184. Формат : UTF-8
  185. Идентификатор кодека : S_TEXT/UTF8
  186. Идентификатор кодека/Информация : UTF-8 Plain Text
  187. Продолжительность : 1 ч. 30 м.
  188. Битрейт : 65 бит/сек
  189. ElementCount : 1109
  190. Размер потока : 43,1 Кбайт (0%)
  191. Заголовок : full
  192. Язык : English
  193. Default : Нет
  194. Forced : Нет
  195.  
  196. Меню
  197. 00:00:00.000 : en:Two cops at work.
  198. 00:04:28.000 : en:Suspicious activity.
  199. 00:08:28.000 : en:Guns and cuffs out.
  200. 00:11:42.000 : en:Camera unfriendly.
  201. 00:13:29.000 : en:The guy's a series.
  202. 00:16:09.000 : en:Star of the show.
  203. 00:20:12.000 : en:Anger for lunch.
  204. 00:22:53.000 : en:Street audition.
  205. 00:27:07.000 : en:Cool with Lazy Boy.
  206. 00:30:16.000 : en:TV cop's arsenal.
  207. 00:34:51.000 : en:Speech for speech.
  208. 00:37:33.000 : en:Crucial evidence.
  209. 00:40:36.000 : en:Surprise guy time.
  210. 00:43:40.000 : en:Auto show.
  211. 00:46:06.000 : en:Showtime.
  212. 00:52:01.000 : en:Justice Channel guy.
  213. 00:59:11.000 : en:Club Cuba Loca.
  214. 01:03:24.000 : en:Trey's Resume.
  215. 01:05:35.000 : en:Sympathetic decor.
  216. 01:07:25.000 : en:Cut to the chase.
  217. 01:11:53.000 : en:Good hood jumping.
  218. 01:13:36.000 : en:Broken apart.
  219. 01:17:14.000 : en:Face and voice recognition.
  220. 01:21:13.000 : en:Gun show gunplay.
  221. 01:24:10.000 : en:Shot by the camera.
  222. 01:27:08.000 : en:Wet and dry bondings
  223. 01:29:49.000 : en:Bloopers (Showtime).
  224. 01:31:17.000 : en:End Credits (Swingin).
RAW Paste Data