Guest User

Untitled

a guest
Nov 25th, 2017
523
Never
Not a member of Pastebin yet? Sign Up, it unlocks many cool features!
  1. General
  2. Unique ID : 217206792237392619189709160863045107560 (0xA36881ABE9A4A4AF808729B3641DBF68)
  3. Complete name : [Kagura] Uchuu Senkan Yamato - 01 [BDRip 1440x1080 x264 Hi10P FLAC].mkv
  4. Format : Matroska
  5. Format version : Version 4 / Version 2
  6. File size : 2.07 GiB
  7. Duration : 25 min 6 s
  8. Overall bit rate mode : Variable
  9. Overall bit rate : 11.8 Mb/s
  10. Encoded date : UTC 2017-06-14 16:32:43
  11. Writing application : mkvmerge v11.0.0 ('Alive') 64bit
  12. Writing library : libebml v1.3.4 + libmatroska v1.4.5
  13.  
  14. Video
  15. ID : 1
  16. Format : AVC
  17. Format/Info : Advanced Video Codec
  18. Format profile : High 10@L5.1
  19. Format settings, CABAC : Yes
  20. Format settings, RefFrames : 8 frames
  21. Codec ID : V_MPEG4/ISO/AVC
  22. Duration : 25 min 6 s
  23. Bit rate : 10.5 Mb/s
  24. Width : 1 440 pixels
  25. Height : 1 080 pixels
  26. Display aspect ratio : 4:3
  27. Frame rate mode : Constant
  28. Frame rate : 23.976 (24000/1001) FPS
  29. Color space : YUV
  30. Chroma subsampling : 4:2:0
  31. Bit depth : 10 bits
  32. Scan type : Progressive
  33. Bits/(Pixel*Frame) : 0.281
  34. Stream size : 1.84 GiB (89%)
  35. Title : [Kagura] Uchuu Senkan Yamato - 01 [BDRip 1440x1080 x264 Hi10P FLAC]
  36. Writing library : x264 core 140 r2377+40 929f149 tMod [10-bit@all X86_64]
  37. Encoding settings : cabac=1 / ref=8 / deblock=1:0:0 / analyse=0x3:0x133 / me=umh / subme=10 / psy=1 / fade_compensate=0.00 / psy_rd=0.90:0.05 / mixed_ref=1 / me_range=32 / chroma_me=1 / trellis=2 / 8x8dct=1 / cqm=0 / deadzone=21,11 / fast_pskip=0 / chroma_qp_offset=-4 / threads=12 / lookahead_threads=3 / sliced_threads=0 / nr=0 / decimate=0 / interlaced=0 / bluray_compat=0 / constrained_intra=0 / fgo=0 / bframes=10 / b_pyramid=2 / b_adapt=2 / b_bias=0 / direct=3 / weightb=1 / open_gop=0 / weightp=2 / keyint=480 / keyint_min=12 / scenecut=50 / intra_refresh=0 / rc=crf / mbtree=0 / crf=19.0000 / qcomp=0.80 / qpmin=16:16:16 / qpmax=46:46:46 / qpstep=4 / ip_ratio=1.40 / pb_ratio=1.30 / aq=1:0.70 / aq-sensitivity=10.00 / aq-factor=1.00:1.00:1.00 / aq2=0 / aq3=0
  38. Language : Japanese
  39. Default : Yes
  40. Forced : No
  41.  
  42. Audio
  43. ID : 2
  44. Format : FLAC
  45. Format/Info : Free Lossless Audio Codec
  46. Codec ID : A_FLAC
  47. Duration : 25 min 6 s
  48. Bit rate mode : Variable
  49. Bit rate : 522 kb/s
  50. Channel(s) : 2 channels
  51. Channel positions : Front: L R
  52. Sampling rate : 48.0 kHz
  53. Frame rate : 11.719 FPS (4096 SPF)
  54. Bit depth : 16 bits
  55. Stream size : 93.7 MiB (4%)
  56. Title : Japanese FLAC Stereo
  57. Writing library : libFLAC 1.3.0 (UTC 2013-05-26)
  58. Language : Japanese
  59. Default : Yes
  60. Forced : No
  61.  
  62. Text #1
  63. ID : 3
  64. Format : ASS
  65. Codec ID : S_TEXT/ASS
  66. Codec ID/Info : Advanced Sub Station Alpha
  67. Duration : 24 min 59 s
  68. Bit rate : 95 b/s
  69. Count of elements : 239
  70. Compression mode : Lossless
  71. Stream size : 17.4 KiB (0%)
  72. Title : English Subtitles (ASS)
  73. Language : English
  74. Default : Yes
  75. Forced : No
  76.  
  77. Text #2
  78. ID : 4
  79. Format : UTF-8
  80. Codec ID : S_TEXT/UTF8
  81. Codec ID/Info : UTF-8 Plain Text
  82. Duration : 24 min 59 s
  83. Bit rate : 44 b/s
  84. Count of elements : 235
  85. Stream size : 8.14 KiB (0%)
  86. Title : English Subtitles (SRT)
  87. Language : English
  88. Default : No
  89. Forced : No
  90.  
  91. Text #3
  92. ID : 5
  93. Format : UTF-8
  94. Codec ID : S_TEXT/UTF8
  95. Codec ID/Info : UTF-8 Plain Text
  96. Duration : 24 min 59 s
  97. Bit rate : 1 b/s
  98. Count of elements : 12
  99. Stream size : 354 Bytes (0%)
  100. Title : English Signs (SRT)
  101. Default : No
  102. Forced : No
  103.  
  104. Text #4
  105. ID : 6
  106. Format : PGS
  107. Muxing mode : zlib
  108. Codec ID : S_HDMV/PGS
  109. Codec ID/Info : Picture based subtitle format used on BDs/HD-DVDs
  110. Duration : 23 min 39 s
  111. Bit rate : 673 kb/s
  112. Count of elements : 574
  113. Stream size : 114 MiB (5%)
  114. Title : Japanese Storyboard Script
  115. Language : Japanese
  116. Default : No
  117. Forced : No
  118.  
  119. Text #5
  120. ID : 7
  121. Format : PGS
  122. Muxing mode : zlib
  123. Codec ID : S_HDMV/PGS
  124. Codec ID/Info : Picture based subtitle format used on BDs/HD-DVDs
  125. Duration : 23 min 40 s
  126. Bit rate : 172 kb/s
  127. Count of elements : 521
  128. Stream size : 29.0 MiB (1%)
  129. Title : Japanese AR Script
  130. Language : Japanese
  131. Default : No
  132. Forced : No
RAW Paste Data