GrabHD

Untitled

Mar 14th, 2020
110
Never
Not a member of Pastebin yet? Sign Up, it unlocks many cool features!
  1. General
  2. Unique ID : 307430159077462148269094096190212697650 (0xE748E5195039E19B0B0993CC36EC6E32)
  3. Complete name : D:Spies.in.Disguise.2019.BDRip.720p.seleZen.mkv
  4. Format : Matroska
  5. Format version : Version 4
  6. File size : 5.98 GiB
  7. Duration : 1 h 41 min
  8. Overall bit rate : 8 403 kb/s
  9. Movie name : Spies.in.Disguise.2019. from селезень
  10. Encoded date : UTC 2020-03-13 02:06:23
  11. Writing application : mkvmerge v41.0.0 ('Smarra') 64-bit
  12. Writing library : libebml v1.3.9 + libmatroska v1.5.2
  13.  
  14. Video
  15. ID : 1
  16. Format : AVC
  17. Format/Info : Advanced Video Codec
  18. Format profile : High@L4.1
  19. Format settings : CABAC / 8 Ref Frames
  20. Format settings, CABAC : Yes
  21. Format settings, Reference : 8 frames
  22. Codec ID : V_MPEG4/ISO/AVC
  23. Duration : 1 h 41 min
  24. Bit rate : 7 377 kb/s
  25. Width : 1 280 pixels
  26. Height : 536 pixels
  27. Display aspect ratio : 2.40:1
  28. Frame rate mode : Constant
  29. Frame rate : 23.976 (24000/1001) FPS
  30. Color space : YUV
  31. Chroma subsampling : 4:2:0
  32. Bit depth : 8 bits
  33. Scan type : Progressive
  34. Bits/(Pixel*Frame) : 0.448
  35. Stream size : 5.25 GiB (88%)
  36. Title : playHD
  37. Writing library : x264 core 159 r2991 1771b55
  38. Encoding settings : cabac=1 / ref=8 / deblock=1:-3:-3 / analyse=0x3:0x133 / me=umh / subme=10 / psy=1 / psy_rd=1.00:0.00 / mixed_ref=1 / me_range=32 / chroma_me=1 / trellis=2 / 8x8dct=1 / cqm=0 / deadzone=21,11 / fast_pskip=0 / chroma_qp_offset=-2 / threads=12 / lookahead_threads=2 / sliced_threads=0 / nr=0 / decimate=0 / interlaced=0 / bluray_compat=0 / constrained_intra=0 / bframes=8 / b_pyramid=2 / b_adapt=2 / b_bias=0 / direct=3 / weightb=1 / open_gop=0 / weightp=2 / keyint=250 / keyint_min=23 / scenecut=40 / intra_refresh=0 / rc=crf / mbtree=0 / crf=15.7 / qcomp=0.60 / qpmin=0 / qpmax=69 / qpstep=4 / ip_ratio=1.30 / pb_ratio=1.20 / aq=3:0.85 / zones=136147,146519,b=0.7
  39. Language : English
  40. Default : Yes
  41. Forced : No
  42.  
  43. Audio #1
  44. ID : 2
  45. Format : AC-3
  46. Format/Info : Audio Coding 3
  47. Commercial name : Dolby Digital
  48. Codec ID : A_AC3
  49. Duration : 1 h 41 min
  50. Bit rate mode : Constant
  51. Bit rate : 384 kb/s
  52. Channel(s) : 6 channels
  53. Channel layout : L R C LFE Ls Rs
  54. Sampling rate : 48.0 kHz
  55. Frame rate : 31.250 FPS (1536 SPF)
  56. Compression mode : Lossy
  57. Stream size : 280 MiB (5%)
  58. Title : Dubbing [iTunes]
  59. Language : Russian
  60. Service kind : Complete Main
  61. Default : Yes
  62. Forced : Yes
  63.  
  64. Audio #2
  65. ID : 3
  66. Format : AC-3
  67. Format/Info : Audio Coding 3
  68. Commercial name : Dolby Digital
  69. Codec ID : A_AC3
  70. Duration : 1 h 41 min
  71. Bit rate mode : Constant
  72. Bit rate : 640 kb/s
  73. Channel(s) : 6 channels
  74. Channel layout : L R C LFE Ls Rs
  75. Sampling rate : 48.0 kHz
  76. Frame rate : 31.250 FPS (1536 SPF)
  77. Compression mode : Lossy
  78. Stream size : 466 MiB (8%)
  79. Language : English
  80. Service kind : Complete Main
  81. Default : No
  82. Forced : No
  83.  
  84. Text #1
  85. ID : 4
  86. Format : UTF-8
  87. Codec ID : S_TEXT/UTF8
  88. Codec ID/Info : UTF-8 Plain Text
  89. Duration : 1 h 40 min
  90. Bit rate : 2 b/s
  91. Count of elements : 48
  92. Stream size : 1.85 KiB (0%)
  93. Title : Forced
  94. Language : Russian
  95. Default : Yes
  96. Forced : Yes
  97.  
  98. Text #2
  99. ID : 5
  100. Format : UTF-8
  101. Codec ID : S_TEXT/UTF8
  102. Codec ID/Info : UTF-8 Plain Text
  103. Duration : 1 h 40 min
  104. Bit rate : 79 b/s
  105. Count of elements : 1455
  106. Stream size : 58.7 KiB (0%)
  107. Title : Full
  108. Language : Russian
  109. Default : No
  110. Forced : No
  111.  
  112. Text #3
  113. ID : 6
  114. Format : UTF-8
  115. Codec ID : S_TEXT/UTF8
  116. Codec ID/Info : UTF-8 Plain Text
  117. Duration : 1 h 18 min
  118. Bit rate : 0 b/s
  119. Count of elements : 6
  120. Stream size : 142 Bytes (0%)
  121. Title : Forced Only
  122. Language : English
  123. Default : No
  124. Forced : No
  125.  
  126. Text #4
  127. ID : 7
  128. Format : UTF-8
  129. Codec ID : S_TEXT/UTF8
  130. Codec ID/Info : UTF-8 Plain Text
  131. Duration : 1 h 31 min
  132. Bit rate : 60 b/s
  133. Count of elements : 1573
  134. Stream size : 40.7 KiB (0%)
  135. Language : English
  136. Default : No
  137. Forced : No
  138.  
  139. Text #5
  140. ID : 8
  141. Format : UTF-8
  142. Codec ID : S_TEXT/UTF8
  143. Codec ID/Info : UTF-8 Plain Text
  144. Duration : 1 h 41 min
  145. Bit rate : 67 b/s
  146. Count of elements : 1905
  147. Stream size : 50.0 KiB (0%)
  148. Title : SDH
  149. Language : English
  150. Default : No
  151. Forced : No
  152.  
  153. Text #6
  154. ID : 9
  155. Format : UTF-8
  156. Codec ID : S_TEXT/UTF8
  157. Codec ID/Info : UTF-8 Plain Text
  158. Duration : 1 h 40 min
  159. Bit rate : 60 b/s
  160. Count of elements : 1463
  161. Stream size : 44.3 KiB (0%)
  162. Language : French
  163. Default : No
  164. Forced : No
  165.  
  166. Menu
  167. 00:00:00.000 : :Chapter 1
  168. 00:04:09.499 : :Chapter 2
  169. 00:06:54.497 : :Chapter 3
  170. 00:11:53.838 : :Chapter 4
  171. 00:15:31.013 : :Chapter 5
  172. 00:20:35.484 : :Chapter 6
  173. 00:23:20.858 : :Chapter 7
  174. 00:26:42.434 : :Chapter 8
  175. 00:30:59.524 : :Chapter 9
  176. 00:36:06.581 : :Chapter 10
  177. 00:41:34.951 : :Chapter 11
  178. 00:45:41.947 : :Chapter 12
  179. 00:49:57.786 : :Chapter 13
  180. 00:53:58.902 : :Chapter 14
  181. 00:56:34.308 : :Chapter 15
  182. 01:00:06.770 : :Chapter 16
  183. 01:08:46.914 : :Chapter 17
  184. 01:12:51.784 : :Chapter 18
  185. 01:17:34.275 : :Chapter 19
  186. 01:20:18.939 : :Chapter 20
  187. 01:23:19.077 : :Chapter 21
  188. 01:26:05.243 : :Chapter 22
  189. 01:29:47.173 : :Chapter 23
  190. 01:33:08.875 : :Chapter 24
RAW Paste Data