Henry_Kr

TransCy-S01

Jul 30th, 2020
96
Never
Not a member of Pastebin yet? Sign Up, it unlocks many cool features!
  1. Video
  2. ID : 1
  3. Format : AVC
  4. Format/Info : Advanced Video Codec
  5. Format profile : High@L4
  6. Format settings : CABAC / 4 Ref Frames
  7. Format settings, CABAC : Yes
  8. Format settings, Reference : 4 frames
  9. Muxing mode : Header stripping
  10. Codec ID : V_MPEG4/ISO/AVC
  11. Duration : 24 min 54 s
  12. Bit rate mode : Variable
  13. Bit rate : 6 862 kb/s
  14. Maximum bit rate : 20.0 Mb/s
  15. Width : 1 920 pixels
  16. Height : 1 080 pixels
  17. Display aspect ratio : 16:9
  18. Frame rate mode : Constant
  19. Frame rate : 24.000 FPS
  20. Color space : YUV
  21. Chroma subsampling : 4:2:0
  22. Bit depth : 8 bits
  23. Scan type : Progressive
  24. Bits/(Pixel*Frame) : 0.138
  25. Stream size : 1.19 GiB (81%)
  26. Title : Transformers.War.For.Cybertron.Trilogy.S01E01.1080p.NF.WEB.[CartoonNOW]
  27. Writing library : x264 core 148 r2721 6d200cf
  28. Encoding settings : cabac=1 / ref=4 / deblock=1:0:0 / analyse=0x3:0x111 / me=umh / subme=10 / psy=1 / psy_rd=1.00:0.00 / mixed_ref=1 / me_range=120 / chroma_me=1 / trellis=2 / 8x8dct=1 / cqm=0 / deadzone=21,11 / fast_pskip=1 / chroma_qp_offset=-2 / threads=8 / lookahead_threads=2 / sliced_threads=0 / nr=0 / decimate=1 / interlaced=0 / bluray_compat=0 / stitchable=1 / constrained_intra=0 / bframes=16 / b_pyramid=2 / b_adapt=2 / b_bias=0 / direct=3 / weightb=1 / open_gop=0 / weightp=2 / keyint=240 / keyint_min=121 / scenecut=0 / intra_refresh=0 / rc_lookahead=240 / rc=crf / mbtree=1 / crf=16.0 / qcomp=0.50 / qpmin=6 / qpmax=51 / qpstep=4 / vbv_maxrate=20000 / vbv_bufsize=25000 / crf_max=0.0 / nal_hrd=vbr / filler=0 / ip_ratio=1.40 / aq=1:0.80
  29. Language : English
  30. Default : Yes
  31. Forced : No
  32. Duration_Source : General_Duration
  33.  
  34. Audio #1
  35. ID : 2
  36. Format : E-AC-3
  37. Format/Info : Enhanced AC-3
  38. Commercial name : Dolby Digital Plus
  39. Muxing mode : Header stripping
  40. Codec ID : A_EAC3
  41. Duration : 24 min 54 s
  42. Bit rate mode : Constant
  43. Bit rate : 640 kb/s
  44. Channel(s) : 6 channels
  45. Channel layout : L R C LFE Ls Rs
  46. Sampling rate : 48.0 kHz
  47. Frame rate : 31.250 FPS (1536 SPF)
  48. Compression mode : Lossy
  49. Stream size : 114 MiB (8%)
  50. Title : E-AC3 5.1
  51. Language : Portuguese
  52. Service kind : Complete Main
  53. Default : Yes
  54. Forced : No
  55. Duration_Source : General_Duration
  56.  
  57. Audio #2
  58. ID : 3
  59. Format : E-AC-3 JOC
  60. Format/Info : Enhanced AC-3 with Joint Object Coding
  61. Commercial name : Dolby Digital Plus with Dolby Atmos
  62. Muxing mode : Header stripping
  63. Codec ID : A_EAC3
  64. Duration : 24 min 54 s
  65. Bit rate mode : Constant
  66. Bit rate : 768 kb/s
  67. Channel(s) : 6 channels
  68. Channel layout : L R C LFE Ls Rs
  69. Sampling rate : 48.0 kHz
  70. Frame rate : 31.250 FPS (1536 SPF)
  71. Compression mode : Lossy
  72. Stream size : 137 MiB (9%)
  73. Title : E-AC3 5.1
  74. Language : English
  75. Service kind : Complete Main
  76. Default : No
  77. Forced : No
  78. Complexity index : 16
  79. Number of dynamic objects : 15
  80. Bed channel count : 1 channel
  81. Bed channel configuration : LFE
  82. Duration_Source : General_Duration
  83.  
  84. Text
  85. ID : 4
  86. Format : UTF-8
  87. Codec ID : S_TEXT/UTF8
  88. Codec ID/Info : UTF-8 Plain Text
  89. Title : Completa
  90. Language : Portuguese
  91. Default : No
  92. Forced : No
  93.  
  94. Video
  95. ID : 1
  96. Format : AVC
  97. Format/Info : Advanced Video Codec
  98. Format profile : High@L4
  99. Format settings : CABAC / 4 Ref Frames
  100. Format settings, CABAC : Yes
  101. Format settings, Reference : 4 frames
  102. Muxing mode : Header stripping
  103. Codec ID : V_MPEG4/ISO/AVC
  104. Duration : 24 min 54 s
  105. Bit rate mode : Variable
  106. Bit rate : 6 862 kb/s
  107. Maximum bit rate : 20.0 Mb/s
  108. Width : 1 920 pixels
  109. Height : 1 080 pixels
  110. Display aspect ratio : 16:9
  111. Frame rate mode : Constant
  112. Frame rate : 24.000 FPS
  113. Color space : YUV
  114. Chroma subsampling : 4:2:0
  115. Bit depth : 8 bits
  116. Scan type : Progressive
  117. Bits/(Pixel*Frame) : 0.138
  118. Stream size : 1.19 GiB (81%)
  119. Title : Transformers.War.For.Cybertron.Trilogy.S01E01.1080p.NF.WEB.[CartoonNOW]
  120. Writing library : x264 core 148 r2721 6d200cf
  121. Language : English
  122. Default : Yes
  123. Forced : No
  124. Duration_Source : General_Duration
  125.  
  126. Audio #1
  127. ID : 2
  128. Format : E-AC-3
  129. Format/Info : Enhanced AC-3
  130. Commercial name : Dolby Digital Plus
  131. Muxing mode : Header stripping
  132. Codec ID : A_EAC3
  133. Duration : 24 min 54 s
  134. Bit rate mode : Constant
  135. Bit rate : 640 kb/s
  136. Channel(s) : 6 channels
  137. Channel layout : L R C LFE Ls Rs
  138. Sampling rate : 48.0 kHz
  139. Frame rate : 31.250 FPS (1536 SPF)
  140. Compression mode : Lossy
  141. Stream size : 114 MiB (8%)
  142. Title : E-AC3 5.1
  143. Language : Portuguese
  144. Service kind : Complete Main
  145. Default : Yes
  146. Forced : No
  147. Duration_Source : General_Duration
  148.  
  149. Audio #2
  150. ID : 3
  151. Format : E-AC-3 JOC
  152. Format/Info : Enhanced AC-3 with Joint Object Coding
  153. Commercial name : Dolby Digital Plus with Dolby Atmos
  154. Muxing mode : Header stripping
  155. Codec ID : A_EAC3
  156. Duration : 24 min 54 s
  157. Bit rate mode : Constant
  158. Bit rate : 768 kb/s
  159. Channel(s) : 6 channels
  160. Channel layout : L R C LFE Ls Rs
  161. Sampling rate : 48.0 kHz
  162. Frame rate : 31.250 FPS (1536 SPF)
  163. Compression mode : Lossy
  164. Stream size : 137 MiB (9%)
  165. Title : E-AC3 5.1
  166. Language : English
  167. Service kind : Complete Main
  168. Default : No
  169. Forced : No
  170. Complexity index : 16
  171. Number of dynamic objects : 15
  172. Bed channel count : 1 channel
  173. Bed channel configuration : LFE
  174. Duration_Source : General_Duration
  175.  
  176. Text
  177. ID : 4
  178. Format : UTF-8
  179. Codec ID : S_TEXT/UTF8
  180. Codec ID/Info : UTF-8 Plain Text
  181. Title : Completa
  182. Language : Portuguese
  183. Default : No
  184. Forced : No
  185.  
  186.  
RAW Paste Data