GrabHD

Untitled

Apr 14th, 2020
17
Never
Not a member of Pastebin yet? Sign Up, it unlocks many cool features!
  1. Источник: The.Turning.2020.1080p.BluRay.REMUX.AVC.DTS-HD.MA
  2. General
  3. Unique ID : 186353230458563685791655976121973852693 (0x8C3253A1205E3E76BE84F4CD3E7FCA15)
  4. Complete name : The.Turning.2020.BDRip.1080p.mkv
  5. Format : Matroska
  6. Format version : Version 4
  7. File size : 8.49 GiB
  8. Duration : 1 h 34 min
  9. Overall bit rate : 12.9 Mb/s
  10. Encoded date : UTC 2020-04-13 20:04:34
  11. Writing application : mkvmerge v7.1.0 ('Good Love') 64bit built on Jul 27 2014 13:06:55
  12. Writing library : libebml v1.3.0 + libmatroska v1.4.1
  13.  
  14. Video
  15. ID : 1
  16. Format : AVC
  17. Format/Info : Advanced Video Codec
  18. Format profile : High@L4.1
  19. Format settings : CABAC / 5 Ref Frames
  20. Format settings, CABAC : Yes
  21. Format settings, Reference fra : 5 frames
  22. Codec ID : V_MPEG4/ISO/AVC
  23. Duration : 1 h 34 min
  24. Bit rate : 10.7 Mb/s
  25. Width : 1 920 pixels
  26. Height : 804 pixels
  27. Display aspect ratio : 2.40:1
  28. Frame rate mode : Constant
  29. Frame rate : 23.976 (24000/1001) FPS
  30. Color space : YUV
  31. Chroma subsampling : 4:2:0
  32. Bit depth : 8 bits
  33. Scan type : Progressive
  34. Bits/(Pixel*Frame) : 0.289
  35. Stream size : 7.06 GiB (83%)
  36. Writing library : x264 core 157 r2958 57baac4
  37. Encoding settings : cabac=1 / ref=5 / deblock=1:-3:-3 / analyse=0x3:0x113 / me=umh / subme=11 / psy=1 / psy_rd=1.00:0.00 / mixed_ref=1 / me_range=48 / chroma_me=1 / trellis=2 / 8x8dct=1 / cqm=0 / deadzone=21,11 / fast_pskip=1 / chroma_qp_offset=-2 / threads=18 / lookahead_threads=4 / sliced_threads=0 / nr=0 / decimate=1 / interlaced=0 / bluray_compat=0 / constrained_intra=0 / bframes=10 / b_pyramid=2 / b_adapt=2 / b_bias=0 / direct=3 / weightb=1 / open_gop=0 / weightp=2 / keyint=240 / keyint_min=24 / scenecut=40 / intra_refresh=0 / rc_lookahead=60 / rc=2pass / mbtree=1 / bitrate=10700 / ratetol=1.0 / qcomp=0.60 / qpmin=0 / qpmax=69 / qpstep=4 / cplxblur=20.0 / qblur=0.5 / ip_ratio=1.40 / aq=1:1.00
  38. Language : English
  39. Default : Yes
  40. Forced : No
  41.  
  42. Audio #1
  43. ID : 2
  44. Format : AC-3
  45. Format/Info : Audio Coding 3
  46. Commercial name : Dolby Digital
  47. Codec ID : A_AC3
  48. Duration : 1 h 34 min
  49. Bit rate mode : Constant
  50. Bit rate : 640 kb/s
  51. Channel(s) : 6 channels
  52. Channel layout : L R C LFE Ls Rs
  53. Sampling rate : 48.0 kHz
  54. Frame rate : 31.250 FPS (1536 SPF)
  55. Compression mode : Lossy
  56. Stream size : 432 MiB (5%)
  57. Title : Mallorn
  58. Language : Russian
  59. Service kind : Complete Main
  60. Default : Yes
  61. Forced : No
  62.  
  63. Audio #2
  64. ID : 3
  65. Format : DTS
  66. Format/Info : Digital Theater Systems
  67. Codec ID : A_DTS
  68. Duration : 1 h 34 min
  69. Bit rate mode : Constant
  70. Bit rate : 1 509 kb/s
  71. Channel(s) : 6 channels
  72. Channel layout : C L R Ls Rs LFE
  73. Sampling rate : 48.0 kHz
  74. Frame rate : 93.750 FPS (512 SPF)
  75. Bit depth : 24 bits
  76. Compression mode : Lossy
  77. Stream size : 1 020 MiB (12%)
  78. Language : English
  79. Default : No
  80. Forced : No
  81.  
  82. Text #1
  83. ID : 4
  84. Format : UTF-8
  85. Codec ID : S_TEXT/UTF8
  86. Codec ID/Info : UTF-8 Plain Text
  87. Duration : 1 h 27 min
  88. Bit rate : 54 b/s
  89. Count of elements : 938
  90. Stream size : 34.8 KiB (0%)
  91. Title : Full
  92. Language : Russian
  93. Default : No
  94. Forced : No
  95.  
  96. Text #2
  97. ID : 5
  98. Format : UTF-8
  99. Codec ID : S_TEXT/UTF8
  100. Codec ID/Info : UTF-8 Plain Text
  101. Duration : 1 h 27 min
  102. Bit rate : 35 b/s
  103. Count of elements : 862
  104. Stream size : 22.7 KiB (0%)
  105. Title : English-SRT
  106. Language : English
  107. Default : No
  108. Forced : No
  109.  
  110. Text #3
  111. ID : 6
  112. Format : PGS
  113. Muxing mode : zlib
  114. Codec ID : S_HDMV/PGS
  115. Codec ID/Info : Picture based subtitle format used on BDs/HD-DVDs
  116. Duration : 1 h 29 min
  117. Bit rate : 14.0 kb/s
  118. Count of elements : 2004
  119. Stream size : 8.89 MiB (0%)
  120. Title : English-PGS
  121. Language : English
  122. Default : No
  123. Forced : No
  124.  
  125. Menu
  126. 00:00:00.000 : :Chapter 01
  127. 00:05:49.349 : :Chapter 02
  128. 00:11:20.971 : :Chapter 03
  129. 00:14:29.952 : :Chapter 04
  130. 00:17:44.313 : :Chapter 05
  131. 00:20:37.402 : :Chapter 06
  132. 00:26:15.198 : :Chapter 07
  133. 00:31:37.437 : :Chapter 08
  134. 00:37:42.093 : :Chapter 09
  135. 00:41:22.980 : :Chapter 10
  136. 00:45:45.200 : :Chapter 11
  137. 00:50:57.929 : :Chapter 12
  138. 00:55:29.909 : :Chapter 13
  139. 00:59:09.504 : :Chapter 14
  140. 01:03:34.560 : :Chapter 15
  141. 01:10:32.770 : :Chapter 16
  142. 01:15:20.766 : :Chapter 17
  143. 01:20:00.378 : :Chapter 18
  144. 01:25:30.834 : :Chapter 19
  145. 01:29:56.766 : :Chapter 20
RAW Paste Data