Advertisement
Henry_Kr

SWE-S01

Jan 19th, 2022
34
Never
Not a member of Pastebin yet? Sign Up, it unlocks many cool features!
  1. Video
  2. ID : 1
  3. Format : AVC
  4. Format/Info : Advanced Video Codec
  5. Format profile : High@L4
  6. Format settings : CABAC / 4 Ref Frames
  7. Format settings, CABAC : Yes
  8. Format settings, Reference : 4 frames
  9. Codec ID : V_MPEG4/ISO/AVC
  10. Duration : 23 min 40 s
  11. Bit rate mode : Variable
  12. Bit rate : 7 669 kb/s
  13. Maximum bit rate : 12.7 Mb/s
  14. Width : 1 920 pixels
  15. Height : 1 080 pixels
  16. Display aspect ratio : 16:9
  17. Frame rate mode : Constant
  18. Frame rate : 23.976 (24000/1001) FPS
  19. Color space : YUV
  20. Chroma subsampling : 4:2:0
  21. Bit depth : 8 bits
  22. Scan type : Progressive
  23. Bits/(Pixel*Frame) : 0.154
  24. Stream size : 1.27 GiB (94%)
  25. Title : Star.Wars.Ewoks.S01E01.1080p.DSNP.WEB.[CartoonNOW]
  26. Language : English
  27. Default : Yes
  28. Forced : No
  29. Color range : Limited
  30. Color primaries : BT.709
  31. Transfer characteristics : BT.709
  32. Matrix coefficients : BT.709
  33.  
  34. Audio #1
  35. ID : 2
  36. Format : AAC LC
  37. Format/Info : Advanced Audio Codec Low Complexity
  38. Codec ID : A_AAC-2
  39. Duration : 23 min 40 s
  40. Bit rate : 125 kb/s
  41. Channel(s) : 2 channels
  42. Channel layout : L R
  43. Sampling rate : 48.0 kHz
  44. Frame rate : 46.875 FPS (1024 SPF)
  45. Compression mode : Lossy
  46. Stream size : 21.2 MiB (2%)
  47. Title : AAC 2.0 (Herbert Richers)
  48. Language : Portuguese
  49. Default : Yes
  50. Forced : Yes
  51.  
  52. Audio #2
  53. ID : 3
  54. Format : AC-3
  55. Format/Info : Audio Coding 3
  56. Commercial name : Dolby Digital
  57. Codec ID : A_AC3
  58. Duration : 23 min 40 s
  59. Bit rate mode : Constant
  60. Bit rate : 192 kb/s
  61. Channel(s) : 2 channels
  62. Channel layout : L R
  63. Sampling rate : 48.0 kHz
  64. Frame rate : 31.250 FPS (1536 SPF)
  65. Compression mode : Lossy
  66. Stream size : 32.5 MiB (2%)
  67. Title : AC3 2.0 (Mastersound)
  68. Language : Portuguese
  69. Service kind : Complete Main
  70. Default : No
  71. Forced : Yes
  72.  
  73. Audio #3
  74. ID : 4
  75. Format : AAC LC
  76. Format/Info : Advanced Audio Codec Low Complexity
  77. Codec ID : A_AAC-2
  78. Duration : 23 min 40 s
  79. Bit rate : 125 kb/s
  80. Channel(s) : 2 channels
  81. Channel layout : L R
  82. Sampling rate : 48.0 kHz
  83. Frame rate : 46.875 FPS (1024 SPF)
  84. Compression mode : Lossy
  85. Stream size : 21.2 MiB (2%)
  86. Title : AAC 2.0
  87. Language : English
  88. Default : No
  89. Forced : No
  90.  
  91. Text #1
  92. ID : 5
  93. Format : UTF-8
  94. Codec ID : S_TEXT/UTF8
  95. Codec ID/Info : UTF-8 Plain Text
  96. Duration : 23 min 31 s
  97. Bit rate : 48 b/s
  98. Count of elements : 279
  99. Stream size : 8.28 KiB (0%)
  100. Title : Português
  101. Language : Portuguese
  102. Default : No
  103. Forced : No
  104.  
  105. Text #2
  106. ID : 6
  107. Format : UTF-8
  108. Codec ID : S_TEXT/UTF8
  109. Codec ID/Info : UTF-8 Plain Text
  110. Duration : 23 min 7 s
  111. Bit rate : 55 b/s
  112. Count of elements : 343
  113. Stream size : 9.43 KiB (0%)
  114. Title : Inglês
  115. Language : English
  116. Default : No
  117. Forced : No
Advertisement
RAW Paste Data Copied
Advertisement