HYBRID_BEING

[Ankoku] One Room - 02 [720p Hi444PP - AAC][EDCDA5DF].mkv

Feb 5th, 2017
168
Never
Not a member of Pastebin yet? Sign Up, it unlocks many cool features!
  1. General
  2. Unique ID : 191273471127287942635083184581893230414 (0x8FE5EE394075E4AEBBB0FEDD7B550F4E)
  3. Complete name : [Ankoku] One Room - 02 [720p Hi444PP - AAC][EDCDA5DF].mkv
  4. Format : Matroska
  5. Format version : Version 4 / Version 2
  6. File size : 52.3 MiB
  7. Duration : 4mn 0s
  8. Overall bit rate : 1 824 Kbps
  9. Encoded date : UTC 2017-01-19 03:07:22
  10. Writing application : mkvmerge v9.6.0 ('Slave To Your Mind') 64bit
  11. Writing library : libebml v1.3.4 + libmatroska v1.4.5
  12. Attachments : Ankoku Comedy_0.ttf / ANNA_.ttf / KozGoPro-Heavy.otf / KozMinPro-Strippedv2-Regular_0.ttf / ラノベPOP_0.otf
  13.  
  14. Video
  15. ID : 1
  16. Format : AVC
  17. Format/Info : Advanced Video Codec
  18. Format profile : High 4:4:4 Predictive@L5
  19. Format settings, CABAC : Yes
  20. Format settings, ReFrames : 16 frames
  21. Codec ID : V_MPEG4/ISO/AVC
  22. Duration : 4mn 0s
  23. Bit rate : 1 516 Kbps
  24. Width : 1 280 pixels
  25. Height : 720 pixels
  26. Display aspect ratio : 16:9
  27. Frame rate mode : Constant
  28. Frame rate : 23.810 fps
  29. Color space : YUV
  30. Chroma subsampling : 4:4:4
  31. Bit depth : 10 bits
  32. Scan type : Progressive
  33. Bits/(Pixel*Frame) : 0.069
  34. Stream size : 43.4 MiB (83%)
  35. Writing library : x264 core 148 r2744 b97ae06
  36. Encoding settings : cabac=1 / ref=16 / deblock=1:-2:-2 / analyse=0x3:0x113 / me=umh / subme=10 / psy=1 / psy_rd=0.75:0.00 / mixed_ref=1 / me_range=28 / chroma_me=1 / trellis=2 / 8x8dct=1 / cqm=0 / deadzone=21,11 / fast_pskip=1 / chroma_qp_offset=7 / threads=12 / lookahead_threads=1 / sliced_threads=0 / nr=0 / decimate=1 / interlaced=0 / bluray_compat=0 / constrained_intra=0 / bframes=10 / b_pyramid=2 / b_adapt=1 / b_bias=0 / direct=3 / weightb=1 / open_gop=0 / weightp=2 / keyint=250 / keyint_min=25 / scenecut=40 / intra_refresh=0 / rc_lookahead=50 / rc=crf / mbtree=1 / crf=16.0 / qcomp=0.60 / qpmin=0 / qpmax=81 / qpstep=4 / ip_ratio=1.40 / aq=1:0.60
  37. Default : Yes
  38. Forced : No
  39. Color range : Full
  40. Color primaries : BT.709
  41. Transfer characteristics : BT.709
  42. Matrix coefficients : BT.709
  43.  
  44. Audio
  45. ID : 2
  46. Format : AAC
  47. Format/Info : Advanced Audio Codec
  48. Format profile : HE-AAC / LC
  49. Codec ID : A_AAC
  50. Duration : 4mn 0s
  51. Bit rate : 127 Kbps
  52. Channel(s) : 2 channels
  53. Channel positions : Front: L R
  54. Sampling rate : 44.1 KHz / 22.05 KHz
  55. Frame rate : 21.533 fps (1024 spf)
  56. Compression mode : Lossy
  57. Stream size : 3.65 MiB (7%)
  58. Language : Japanese
  59. Default : Yes
  60. Forced : No
  61.  
  62. Text
  63. ID : 3
  64. Format : ASS
  65. Codec ID : S_TEXT/ASS
  66. Codec ID/Info : Advanced Sub Station Alpha
  67. Duration : 3mn 24s
  68. Bit rate : 246 bps
  69. Count of elements : 59
  70. Compression mode : Lossless
  71. Stream size : 6.13 KiB (0%)
  72. Default : Yes
  73. Forced : No
  74.  
  75. Menu
  76. 00:00:00.290 : :Previous
  77. 00:00:16.100 : :Episode
  78. 00:03:30.240 : :ED
RAW Paste Data