GrabHD

Untitled

Feb 20th, 2020
173
Never
Not a member of Pastebin yet? Sign Up, it unlocks many cool features!
  1. Общее
  2. Уникальный идентификатор : 19502408840948825908061645303433236323 (0xEAC06FE46B3A1DDD2E832E749858F63)
  3. Полное имя : In the Tall Grass.2019.WEB-DL.1080p.mkv
  4. Формат : Matroska
  5. Версия формата : Version 4
  6. Размер файла : 6,17 Гбайт
  7. Продолжительность : 1 ч. 41 м.
  8. Режим общего битрейта : Переменный
  9. Общий поток : 8662 Кбит/сек
  10. Название фильма : In the Tall Grass.2019.WEB-DL.1080p
  11. Дата кодирования : UTC 2019-12-07 22:28:45
  12. Программа кодирования : mkvmerge v23.0.0 ('The Bride Said No') 64-bit
  13. Библиотека кодирования : libebml v1.3.6 + libmatroska v1.4.9
  14.  
  15. Видео
  16. Идентификатор : 1
  17. Формат : AVC
  18. Формат/Информация : Advanced Video Codec
  19. Профиль формата : Main@L4
  20. Настройки формата : CABAC / 3 Ref Frames
  21. Параметр CABAC формата : Да
  22. Параметр RefFrames формата : 3 кадра
  23. Идентификатор кодека : V_MPEG4/ISO/AVC
  24. Продолжительность : 1 ч. 41 м.
  25. Вид битрейта : Переменный
  26. Битрейт : 7500 Кбит/сек
  27. Максимальный битрейт : 11,2 Мбит/сек
  28. Ширина : 1920 пикселей
  29. Высота : 1080 пикселей
  30. Соотношение сторон : 16:9
  31. Режим частоты кадров : Постоянный
  32. Частота кадров : 24,000 кадра/сек
  33. Цветовое пространство : YUV
  34. Субдискретизация насыщенности : 4:2:0
  35. Битовая глубина : 8 бит
  36. Тип развёртки : Прогрессивная
  37. Бит/(Пиксели*Кадры) : 0.151
  38. Размер потока : 5,30 Гбайт (86%)
  39. Библиотека кодирования : x264 core 148 r2715 7e75228
  40. Настройки программы : cabac=1 / ref=3 / deblock=1:0:0 / analyse=0x1:0x111 / me=umh / subme=10 / psy=1 / psy_rd=1.00:0.00 / mixed_ref=1 / me_range=24 / chroma_me=1 / trellis=2 / 8x8dct=0 / cqm=0 / deadzone=21,11 / fast_pskip=1 / chroma_qp_offset=-2 / threads=8 / lookahead_threads=1 / sliced_threads=0 / nr=0 / decimate=1 / interlaced=0 / bluray_compat=0 / stitchable=1 / constrained_intra=0 / bframes=2 / b_pyramid=0 / b_adapt=2 / b_bias=0 / direct=3 / weightb=1 / open_gop=0 / weightp=2 / keyint=250 / keyint_min=24 / scenecut=0 / intra_refresh=0 / rc_lookahead=48 / rc=2pass / mbtree=1 / bitrate=7500 / ratetol=1.0 / qcomp=0.50 / qpmin=6 / qpmax=51 / qpstep=4 / cplxblur=20.0 / qblur=0.5 / vbv_maxrate=11250 / vbv_bufsize=15000 / nal_hrd=vbr / filler=0 / ip_ratio=1.40 / aq=1:1.00
  41. Язык : English
  42. Default : Да
  43. Forced : Нет
  44.  
  45. Аудио #1
  46. Идентификатор : 2
  47. Формат : AC-3
  48. Формат/Информация : Audio Coding 3
  49. Коммерческое название : Dolby Digital
  50. Идентификатор кодека : A_AC3
  51. Продолжительность : 1 ч. 41 м.
  52. Вид битрейта : Постоянный
  53. Битрейт : 448 Кбит/сек
  54. Каналы : 6 каналов
  55. ChannelLayout : L R C LFE Ls Rs
  56. Частота : 48,0 КГц
  57. Частота кадров : 31,250 кадров/сек (1536 SPF)
  58. Метод сжатия : С потерями
  59. Размер потока : 327 Мбайт (5%)
  60. Заголовок : MVO (HDRezka Studio)
  61. Язык : Russian
  62. ServiceKind : Complete Main
  63. Default : Да
  64. Forced : Нет
  65.  
  66. Аудио #2
  67. Идентификатор : 3
  68. Формат : E-AC-3 JOC
  69. Формат/Информация : Enhanced AC-3 with Joint Object Coding
  70. Коммерческое название : Dolby Digital Plus with Dolby Atmos
  71. Идентификатор кодека : A_EAC3
  72. Продолжительность : 1 ч. 41 м.
  73. Вид битрейта : Постоянный
  74. Битрейт : 768 Кбит/сек
  75. Каналы : 6 каналов
  76. ChannelLayout : L R C LFE Ls Rs
  77. Частота : 48,0 КГц
  78. Частота кадров : 31,250 кадров/сек (1536 SPF)
  79. Метод сжатия : С потерями
  80. Размер потока : 560 Мбайт (9%)
  81. Язык : English
  82. ServiceKind : Complete Main
  83. Default : Нет
  84. Forced : Нет
  85. ComplexityIndex : 16
  86. NumberOfDynamicObjects : 15
  87. BedChannelCount : 1 канал
  88. BedChannelConfiguration : LFE
  89.  
  90. Текст #1
  91. Идентификатор : 4
  92. Формат : UTF-8
  93. Идентификатор кодека : S_TEXT/UTF8
  94. Идентификатор кодека/Информация : UTF-8 Plain Text
  95. Продолжительность : 13 м. 15 с.
  96. Битрейт : 1 бит/сек
  97. ElementCount : 6
  98. Размер потока : 198 байт (0%)
  99. Заголовок : Forced
  100. Язык : Russian
  101. Default : Да
  102. Forced : Нет
  103.  
  104. Текст #2
  105. Идентификатор : 5
  106. Формат : UTF-8
  107. Идентификатор кодека : S_TEXT/UTF8
  108. Идентификатор кодека/Информация : UTF-8 Plain Text
  109. Продолжительность : 1 ч. 39 м.
  110. Битрейт : 55 бит/сек
  111. ElementCount : 929
  112. Размер потока : 40,3 Кбайт (0%)
  113. Заголовок : Full
  114. Язык : Russian
  115. Default : Нет
  116. Forced : Нет
  117.  
  118. Текст #3
  119. Идентификатор : 6
  120. Формат : UTF-8
  121. Идентификатор кодека : S_TEXT/UTF8
  122. Идентификатор кодека/Информация : UTF-8 Plain Text
  123. Продолжительность : 1 ч. 37 м.
  124. Битрейт : 42 бит/сек
  125. ElementCount : 1258
  126. Размер потока : 30,5 Кбайт (0%)
  127. Заголовок : Full
  128. Язык : English
  129. Default : Нет
  130. Forced : Нет
  131.  
  132. Текст #4
  133. Идентификатор : 7
  134. Формат : UTF-8
  135. Идентификатор кодека : S_TEXT/UTF8
  136. Идентификатор кодека/Информация : UTF-8 Plain Text
  137. Продолжительность : 1 ч. 38 м.
  138. Битрейт : 49 бит/сек
  139. ElementCount : 1501
  140. Размер потока : 35,9 Кбайт (0%)
  141. Заголовок : SDH
  142. Язык : English
  143. Default : Нет
  144. Forced : Нет
RAW Paste Data