Interfilm

Untitled

Jun 7th, 2014
239
Never
Not a member of Pastebin yet? Sign Up, it unlocks many cool features!
  1. Общее
  2. The.Closed.Circuit.2013.Blu.Ray.1080p.CINEMANIA.mkv
  3. Формат : Matroska
  4. Версия формата : Version 4 / Version 2
  5. Размер файла : 12,4 Гбайт
  6. Продолжительность : 1 ч. 54 м.
  7. Общий поток : 15,5 Мбит/сек
  8. Название фильма : Release Group CINEMANIA
  9. Дата кодирования : UTC 2014-06-07 11:49:39
  10. Программа кодирования : mkvmerge v6.9.1 ('Blue Panther') 64bit built on Apr 18 2014 18:23:38
  11. Библиотека кодирования : libebml v1.3.0 + libmatroska v1.4.1
  12.  
  13. Видео
  14. Идентификатор : 1
  15. Формат : AVC
  16. Формат/Информация : Advanced Video Codec
  17. Профиль формата : High@L4.1
  18. Параметр CABAC формата : Да
  19. Параметр ReFrames формата : 5 кадров
  20. Идентификатор кодека : V_MPEG4/ISO/AVC
  21. Продолжительность : 1 ч. 54 м.
  22. Битрейт : 13,5 Мбит/сек
  23. Ширина : 1920 пикселей
  24. Высота : 804 пикселя
  25. Соотношение сторон : 2,40:1
  26. Режим частоты кадров : Постоянный
  27. Частота кадров : 25,000 кадров/сек
  28. Цветовое пространство : YUV
  29. Субдискретизация насыщенности : 4:2:0
  30. Битовая глубина : 8 бит
  31. Тип развёртки : Прогрессивная
  32. Бит/(Пиксели*Кадры) : 0.350
  33. Размер потока : 10,6 Гбайт (85%)
  34. Заголовок : Release Group CINEMANIA
  35. Библиотека кодирования : x264 core 130 r2273 b3065e6
  36. Настройки программы : cabac=1 / ref=5 / deblock=1:-3:-3 / analyse=0x3:0x133 / me=umh / subme=9 / psy=1 / psy_rd=1.00:0.10 / mixed_ref=1 / me_range=32 / chroma_me=1 / trellis=2 / 8x8dct=1 / cqm=0 / deadzone=21,11 / fast_pskip=0 / chroma_qp_offset=-3 / threads=6 / lookahead_threads=1 / sliced_threads=0 / nr=0 / decimate=1 / interlaced=0 / bluray_compat=0 / constrained_intra=0 / bframes=3 / b_pyramid=2 / b_adapt=2 / b_bias=0 / direct=3 / weightb=1 / open_gop=0 / weightp=2 / keyint=250 / keyint_min=25 / scenecut=40 / intra_refresh=0 / rc_lookahead=60 / rc=2pass / mbtree=0 / bitrate=13500 / ratetol=1.0 / qcomp=0.60 / qpmin=10 / qpmax=51 / qpstep=4 / cplxblur=20.0 / qblur=0.5 / vbv_maxrate=50000 / vbv_bufsize=62500 / nal_hrd=none / ip_ratio=1.40 / pb_ratio=1.30 / aq=1:0.90
  37. Язык : Polish
  38. Default : Да
  39. Forced : Нет
  40.  
  41. Аудио #1
  42. Идентификатор : 2
  43. Формат : AC-3
  44. Формат/Информация : Audio Coding 3
  45. Расширение режима : CM (complete main)
  46. Параметр Endianness формата : Big
  47. Идентификатор кодека : A_AC3
  48. Продолжительность : 1 ч. 54 м.
  49. Вид битрейта : Постоянный
  50. Битрейт : 448 Кбит/сек
  51. Каналы : 6 каналов
  52. Расположение каналов : Front: L C R, Side: L R, LFE
  53. Частота : 48,0 КГц
  54. Битовая глубина : 16 бит
  55. Метод сжатия : С потерями
  56. Размер потока : 367 Мбайт (3%)
  57. Заголовок : PashaUp
  58. Язык : Russian
  59. Default : Да
  60. Forced : Да
  61.  
  62. Аудио #2
  63. Идентификатор : 3
  64. Формат : DTS
  65. Формат/Информация : Digital Theater Systems
  66. Режим : 16
  67. Параметр Endianness формата : Big
  68. Идентификатор кодека : A_DTS
  69. Продолжительность : 1 ч. 54 м.
  70. Вид битрейта : Постоянный
  71. Битрейт : 1509 Кбит/сек
  72. Каналы : 6 каналов
  73. Расположение каналов : Front: L C R, Side: L R, LFE
  74. Частота : 48,0 КГц
  75. Битовая глубина : 16 бит
  76. Метод сжатия : С потерями
  77. Размер потока : 1,21 Гбайт (10%)
  78. Язык : Polish
  79. Default : Нет
  80. Forced : Нет
  81.  
  82. Текст #1
  83. Идентификатор : 4
  84. Формат : UTF-8
  85. Идентификатор кодека : S_TEXT/UTF8
  86. Идентификатор кодека/Информация : UTF-8 Plain Text
  87. Заголовок : STOP!Genocide
  88. Язык : Russian
  89. Default : Нет
  90. Forced : Нет
  91.  
  92. Текст #2
  93. Идентификатор : 5
  94. Формат : UTF-8
  95. Идентификатор кодека : S_TEXT/UTF8
  96. Идентификатор кодека/Информация : UTF-8 Plain Text
  97. Язык : English
  98. Default : Нет
  99. Forced : Нет
  100.  
  101. Меню
  102. 00:00:00.000 : en:
  103. 00:11:08.079 : en:
  104. 00:15:24.800 : en:
  105. 00:18:58.000 : en:
  106. 00:25:18.400 : en:
  107. 00:36:39.719 : en:
  108. 00:43:05.239 : en:
  109. 00:50:21.960 : en:
  110. 00:57:02.000 : en:
  111. 01:05:38.720 : en:
  112. 01:11:52.640 : en:
  113. 01:21:16.920 : en:
  114. 01:26:44.920 : en:
  115. 01:34:18.400 : en:
  116. 01:42:10.280 : en:
  117. 01:50:45.720 : en:
RAW Paste Data