HYBRID_BEING

[Hassan-Raws] Kubikiri Cycle - Aoiro Savant to Zaregototsukai - 01 (BD 1920x1080 x264 AACx2).mp4

Nov 14th, 2016
133
Never
Not a member of Pastebin yet? Sign Up, it unlocks many cool features!
  1. General
  2. Complete name : [Hassan-Raws] Kubikiri Cycle - Aoiro Savant to Zaregototsukai - 01 (BD 1920x1080 x264 AACx2).mp4
  3. Format : MPEG-4
  4. Format profile : Base Media / Version 2
  5. Codec ID : mp42 (isom/iso2/avc1/mp41)
  6. File size : 628 MiB
  7. Duration : 27mn 14s
  8. Overall bit rate : 3 224 Kbps
  9. Encoded date : UTC 2016-10-27 14:36:08
  10. Tagged date : UTC 2016-10-27 14:36:08
  11. Writing application : HandBrake 0.10.5 2016021100
  12.  
  13. Video
  14. ID : 1
  15. Format : AVC
  16. Format/Info : Advanced Video Codec
  17. Format profile : Main@L4
  18. Format settings, CABAC : Yes
  19. Format settings, ReFrames : 4 frames
  20. Codec ID : avc1
  21. Codec ID/Info : Advanced Video Coding
  22. Duration : 27mn 14s
  23. Bit rate : 2 771 Kbps
  24. Width : 1 920 pixels
  25. Height : 1 080 pixels
  26. Display aspect ratio : 16:9
  27. Frame rate mode : Variable
  28. Frame rate : 23.976 (24000/1001) fps
  29. Minimum frame rate : 23.974 fps
  30. Maximum frame rate : 23.981 fps
  31. Color space : YUV
  32. Chroma subsampling : 4:2:0
  33. Bit depth : 8 bits
  34. Scan type : Progressive
  35. Bits/(Pixel*Frame) : 0.056
  36. Stream size : 540 MiB (86%)
  37. Writing library : x264 core 142 r2479 dd79a61
  38. Encoding settings : cabac=1 / ref=1 / deblock=1:0:0 / analyse=0x1:0x111 / me=hex / subme=2 / psy=1 / psy_rd=1.00:0.00 / mixed_ref=0 / me_range=16 / chroma_me=1 / trellis=0 / 8x8dct=0 / cqm=0 / deadzone=21,11 / fast_pskip=1 / chroma_qp_offset=0 / threads=6 / lookahead_threads=2 / sliced_threads=0 / nr=0 / decimate=1 / interlaced=0 / bluray_compat=0 / constrained_intra=0 / bframes=3 / b_pyramid=2 / b_adapt=1 / b_bias=0 / direct=1 / weightb=1 / open_gop=0 / weightp=1 / keyint=240 / keyint_min=24 / scenecut=40 / intra_refresh=0 / rc_lookahead=10 / rc=crf / mbtree=1 / crf=20.0 / qcomp=0.60 / qpmin=0 / qpmax=69 / qpstep=4 / vbv_maxrate=20000 / vbv_bufsize=25000 / crf_max=0.0 / nal_hrd=none / filler=0 / ip_ratio=1.40 / aq=1:1.00
  39. Encoded date : UTC 2016-10-27 14:36:08
  40. Tagged date : UTC 2016-10-27 14:36:08
  41. Color range : Limited
  42. Color primaries : BT.709
  43. Transfer characteristics : BT.709
  44. Matrix coefficients : BT.709
  45. Menus : 4
  46.  
  47. Audio #1
  48. ID : 2
  49. Format : AC-3
  50. Format/Info : Audio Coding 3
  51. Mode extension : CM (complete main)
  52. Format settings, Endianness : Big
  53. Codec ID : ac-3
  54. Duration : 27mn 14s
  55. Bit rate mode : Constant
  56. Bit rate : 224 Kbps
  57. Channel(s) : 2 channels
  58. Channel positions : Front: L R
  59. Sampling rate : 48.0 KHz
  60. Frame rate : 31.250 fps (1536 spf)
  61. Bit depth : 16 bits
  62. Compression mode : Lossy
  63. Stream size : 43.7 MiB (7%)
  64. Title : Stereo / Stereo
  65. Language : Japanese
  66. Default : Yes
  67. Alternate group : 1
  68. Encoded date : UTC 2016-10-27 14:36:08
  69. Tagged date : UTC 2016-10-27 14:36:08
  70. Menus : 4
  71.  
  72. Audio #2
  73. ID : 3
  74. Format : AC-3
  75. Format/Info : Audio Coding 3
  76. Mode extension : CM (complete main)
  77. Format settings, Endianness : Big
  78. Codec ID : ac-3
  79. Duration : 27mn 14s
  80. Bit rate mode : Constant
  81. Bit rate : 224 Kbps
  82. Channel(s) : 2 channels
  83. Channel positions : Front: L R
  84. Sampling rate : 48.0 KHz
  85. Frame rate : 31.250 fps (1536 spf)
  86. Bit depth : 16 bits
  87. Compression mode : Lossy
  88. Stream size : 43.7 MiB (7%)
  89. Title : Stereo / Stereo
  90. Language : Japanese
  91. Default : No
  92. Alternate group : 1
  93. Encoded date : UTC 2016-10-27 14:36:08
  94. Tagged date : UTC 2016-10-27 14:36:08
  95. Menus : 4
  96.  
  97. Menu
  98. ID : 4
  99. Codec ID : text
  100. Duration : 27mn 14s
  101. Language : English
  102. Encoded date : UTC 2016-10-27 14:36:08
  103. Tagged date : UTC 2016-10-27 14:36:08
  104. Bit rate mode : CBR
  105. Menu For : 1,2,3
  106. 00:00:00.000 : Chapter 1
  107. 00:02:57.803 : Chapter 2
  108. 00:05:35.752 : Chapter 3
  109. 00:08:28.633 : Chapter 4
  110. 00:12:17.111 : Chapter 5
  111. 00:19:24.246 : Chapter 6
  112. 00:21:37.755 : Chapter 7
  113. 00:25:39.121 : Chapter 8
RAW Paste Data