SHARE
TWEET

Event.Horizon.1997.Remastered.BluRay.1080p.TrueHD.5.1.AVC.HYBRID.REMUX-FraMeSToR

a guest Jun 12th, 2019 57 Never
Not a member of Pastebin yet? Sign Up, it unlocks many cool features!
  1. General
  2. Complete name                            : Event.Horizon.1997.Remastered.BluRay.1080p.TrueHD.5.1.AVC.HYBRID.REMUX-FraMeSToR.mkv
  3. Format                                   : Matroska
  4. Format version                           : Version 4
  5. File size                                : 24.7 GiB
  6. Duration                                 : 1 h 35 min
  7. Overall bit rate mode                    : Variable
  8. Overall bit rate                         : 36.9 Mb/s
  9. Encoded date                             : UTC 2018-05-27 01:21:15
  10. Writing application                      : mkvmerge v23.0.0 ('The Bride Said No') 64-bit
  11. Writing library                          : libebml v1.3.6 + libmatroska v1.4.9
  12.  
  13. Video
  14. ID                                       : 1
  15. Format                                   : AVC
  16. Format/Info                              : Advanced Video Codec
  17. Format profile                           : Main@L4.1
  18. Format settings                          : CABAC / 3 Ref Frames
  19. Format settings, CABAC                   : Yes
  20. Format settings, Reference frames        : 3 frames
  21. Codec ID                                 : V_MPEG4/ISO/AVC
  22. Duration                                 : 1 h 35 min
  23. Bit rate mode                            : Variable
  24. Bit rate                                 : 32.0 Mb/s
  25. Maximum bit rate                         : 36.0 Mb/s
  26. Width                                    : 1 920 pixels
  27. Height                                   : 1 080 pixels
  28. Display aspect ratio                     : 16:9
  29. Frame rate mode                          : Constant
  30. Frame rate                               : 23.976 (24000/1001) FPS
  31. Color space                              : YUV
  32. Chroma subsampling                       : 4:2:0
  33. Bit depth                                : 8 bits
  34. Scan type                                : Progressive
  35. Bits/(Pixel*Frame)                       : 0.644
  36. Stream size                              : 21.4 GiB (86%)
  37. Writing library                          : x264 core 148 r2643 5c65704
  38. Encoding settings                        : cabac=1 / ref=1 / deblock=1:-1:-1 / analyse=0x1:0 / me=dia / subme=2 / psy=1 / psy_rd=1.00:0.15 / mixed_ref=0 / me_range=16 / chroma_me=1 / trellis=0 / 8x8dct=0 / cqm=0 / deadzone=21,11 / fast_pskip=1 / chroma_qp_offset=0 / threads=16 / lookahead_threads=8 / sliced_threads=0 / slices=4 / nr=0 / decimate=1 / interlaced=0 / bluray_compat=1 / constrained_intra=0 / bframes=3 / b_pyramid=1 / b_adapt=2 / b_bias=0 / direct=3 / weightb=1 / open_gop=0 / weightp=1 / keyint=24 / keyint_min=1 / scenecut=40 / intra_refresh=0 / rc_lookahead=24 / rc=abr / mbtree=1 / bitrate=32000 / ratetol=1.0 / qcomp=0.60 / qpmin=0 / qpmax=69 / qpstep=4 / vbv_maxrate=36000 / vbv_bufsize=30000 / nal_hrd=vbr / filler=0 / ip_ratio=1.40 / aq=1:1.00
  39. Default                                  : Yes
  40. Forced                                   : No
  41. Color range                              : Limited
  42. Color primaries                          : BT.709
  43. Transfer characteristics                 : BT.709
  44. Matrix coefficients                      : BT.709
  45.  
  46. Audio #1
  47. ID                                       : 2
  48. Format                                   : MLP FBA
  49. Format/Info                              : Meridian Lossless Packing FBA
  50. Commercial name                          : Dolby TrueHD
  51. Codec ID                                 : A_TRUEHD
  52. Duration                                 : 1 h 35 min
  53. Bit rate mode                            : Variable
  54. Bit rate                                 : 3 452 kb/s
  55. Maximum bit rate                         : 5 247 kb/s
  56. Channel(s)                               : 6 channels
  57. Channel layout                           : L R C LFE Ls Rs
  58. Sampling rate                            : 48.0 kHz
  59. Frame rate                               : 1 200.000 FPS (40 SPF)
  60. Compression mode                         : Lossless
  61. Stream size                              : 2.31 GiB (9%)
  62. Title                                    : TrueHD 5.1
  63. Language                                 : English
  64. Default                                  : Yes
  65. Forced                                   : No
  66.  
  67. Audio #2
  68. ID                                       : 3
  69. Format                                   : AC-3
  70. Format/Info                              : Audio Coding 3
  71. Commercial name                          : Dolby Digital
  72. Codec ID                                 : A_AC3
  73. Duration                                 : 1 h 35 min
  74. Bit rate mode                            : Constant
  75. Bit rate                                 : 640 kb/s
  76. Channel(s)                               : 6 channels
  77. Channel layout                           : L R C LFE Ls Rs
  78. Sampling rate                            : 48.0 kHz
  79. Frame rate                               : 31.250 FPS (1536 SPF)
  80. Bit depth                                : 16 bits
  81. Compression mode                         : Lossy
  82. Stream size                              : 439 MiB (2%)
  83. Title                                    : AC3 5.1
  84. Language                                 : English
  85. Service kind                             : Complete Main
  86. Default                                  : No
  87. Forced                                   : No
  88.  
  89. Audio #3
  90. ID                                       : 4
  91. Format                                   : AC-3
  92. Format/Info                              : Audio Coding 3
  93. Commercial name                          : Dolby Digital
  94. Codec ID                                 : A_AC3
  95. Duration                                 : 1 h 35 min
  96. Bit rate mode                            : Constant
  97. Bit rate                                 : 224 kb/s
  98. Channel(s)                               : 2 channels
  99. Channel layout                           : L R
  100. Sampling rate                            : 48.0 kHz
  101. Frame rate                               : 31.250 FPS (1536 SPF)
  102. Bit depth                                : 16 bits
  103. Compression mode                         : Lossy
  104. Stream size                              : 154 MiB (1%)
  105. Title                                    : Commentary by Director Paul Anderson/Producer Jeremy Bolt
  106. Language                                 : English
  107. Service kind                             : Complete Main
  108. Default                                  : No
  109. Forced                                   : No
  110.  
  111. Text #1
  112. ID                                       : 5
  113. Format                                   : PGS
  114. Codec ID                                 : S_HDMV/PGS
  115. Codec ID/Info                            : Picture based subtitle format used on BDs/HD-DVDs
  116. Duration                                 : 1 h 26 min
  117. Bit rate                                 : 34.0 kb/s
  118. Count of elements                        : 2044
  119. Stream size                              : 21.2 MiB (0%)
  120. Title                                    : English
  121. Language                                 : English
  122. Default                                  : No
  123. Forced                                   : No
  124.  
  125. Text #2
  126. ID                                       : 6
  127. Format                                   : PGS
  128. Codec ID                                 : S_HDMV/PGS
  129. Codec ID/Info                            : Picture based subtitle format used on BDs/HD-DVDs
  130. Duration                                 : 1 h 28 min
  131. Bit rate                                 : 35.0 kb/s
  132. Count of elements                        : 2140
  133. Stream size                              : 22.1 MiB (0%)
  134. Title                                    : English (SDH)
  135. Language                                 : English
  136. Default                                  : No
  137. Forced                                   : No
  138.  
  139. Text #3
  140. ID                                       : 7
  141. Format                                   : PGS
  142. Codec ID                                 : S_HDMV/PGS
  143. Codec ID/Info                            : Picture based subtitle format used on BDs/HD-DVDs
  144. Duration                                 : 1 h 30 min
  145. Bit rate                                 : 31.2 kb/s
  146. Count of elements                        : 2090
  147. Stream size                              : 20.2 MiB (0%)
  148. Title                                    : Spanish (Latin American)
  149. Language                                 : Spanish
  150. Default                                  : No
  151. Forced                                   : No
  152.  
  153. Text #4
  154. ID                                       : 8
  155. Format                                   : PGS
  156. Codec ID                                 : S_HDMV/PGS
  157. Codec ID/Info                            : Picture based subtitle format used on BDs/HD-DVDs
  158. Duration                                 : 1 h 35 min
  159. Bit rate                                 : 30.1 kb/s
  160. Count of elements                        : 2086
  161. Stream size                              : 20.5 MiB (0%)
  162. Title                                    : Spanish (Castilian)
  163. Language                                 : Spanish
  164. Default                                  : No
  165. Forced                                   : No
  166.  
  167. Text #5
  168. ID                                       : 9
  169. Format                                   : PGS
  170. Codec ID                                 : S_HDMV/PGS
  171. Codec ID/Info                            : Picture based subtitle format used on BDs/HD-DVDs
  172. Duration                                 : 1 h 35 min
  173. Bit rate                                 : 26.9 kb/s
  174. Count of elements                        : 2086
  175. Stream size                              : 18.3 MiB (0%)
  176. Title                                    : French
  177. Language                                 : French
  178. Default                                  : No
  179. Forced                                   : No
  180.  
  181. Text #6
  182. ID                                       : 10
  183. Format                                   : PGS
  184. Codec ID                                 : S_HDMV/PGS
  185. Codec ID/Info                            : Picture based subtitle format used on BDs/HD-DVDs
  186. Duration                                 : 1 h 35 min
  187. Bit rate                                 : 31.6 kb/s
  188. Count of elements                        : 2086
  189. Stream size                              : 21.5 MiB (0%)
  190. Title                                    : German
  191. Language                                 : German
  192. Default                                  : No
  193. Forced                                   : No
  194.  
  195. Text #7
  196. ID                                       : 11
  197. Format                                   : PGS
  198. Codec ID                                 : S_HDMV/PGS
  199. Codec ID/Info                            : Picture based subtitle format used on BDs/HD-DVDs
  200. Duration                                 : 1 h 35 min
  201. Bit rate                                 : 28.3 kb/s
  202. Count of elements                        : 2084
  203. Stream size                              : 19.3 MiB (0%)
  204. Title                                    : Italian
  205. Language                                 : Italian
  206. Default                                  : No
  207. Forced                                   : No
  208.  
  209. Text #8
  210. ID                                       : 12
  211. Format                                   : PGS
  212. Codec ID                                 : S_HDMV/PGS
  213. Codec ID/Info                            : Picture based subtitle format used on BDs/HD-DVDs
  214. Duration                                 : 1 h 33 min
  215. Bit rate                                 : 25.8 kb/s
  216. Count of elements                        : 2084
  217. Stream size                              : 17.3 MiB (0%)
  218. Title                                    : Dutch
  219. Language                                 : Dutch
  220. Default                                  : No
  221. Forced                                   : No
  222.  
  223. Text #9
  224. ID                                       : 13
  225. Format                                   : PGS
  226. Codec ID                                 : S_HDMV/PGS
  227. Codec ID/Info                            : Picture based subtitle format used on BDs/HD-DVDs
  228. Duration                                 : 1 h 33 min
  229. Bit rate                                 : 30.2 kb/s
  230. Count of elements                        : 2084
  231. Stream size                              : 20.3 MiB (0%)
  232. Title                                    : Danish
  233. Language                                 : Danish
  234. Default                                  : No
  235. Forced                                   : No
  236.  
  237. Text #10
  238. ID                                       : 14
  239. Format                                   : PGS
  240. Codec ID                                 : S_HDMV/PGS
  241. Codec ID/Info                            : Picture based subtitle format used on BDs/HD-DVDs
  242. Duration                                 : 1 h 33 min
  243. Bit rate                                 : 26.6 kb/s
  244. Count of elements                        : 2084
  245. Stream size                              : 17.8 MiB (0%)
  246. Title                                    : Norwegian
  247. Language                                 : Norwegian
  248. Default                                  : No
  249. Forced                                   : No
  250.  
  251. Text #11
  252. ID                                       : 15
  253. Format                                   : PGS
  254. Codec ID                                 : S_HDMV/PGS
  255. Codec ID/Info                            : Picture based subtitle format used on BDs/HD-DVDs
  256. Duration                                 : 1 h 33 min
  257. Bit rate                                 : 26.3 kb/s
  258. Count of elements                        : 2084
  259. Stream size                              : 17.6 MiB (0%)
  260. Title                                    : Finnish
  261. Language                                 : Finnish
  262. Default                                  : No
  263. Forced                                   : No
  264.  
  265. Text #12
  266. ID                                       : 16
  267. Format                                   : PGS
  268. Codec ID                                 : S_HDMV/PGS
  269. Codec ID/Info                            : Picture based subtitle format used on BDs/HD-DVDs
  270. Duration                                 : 1 h 33 min
  271. Bit rate                                 : 27.3 kb/s
  272. Count of elements                        : 2084
  273. Stream size                              : 18.3 MiB (0%)
  274. Title                                    : Swedish
  275. Language                                 : Swedish
  276. Default                                  : No
  277. Forced                                   : No
  278.  
  279. Text #13
  280. ID                                       : 17
  281. Format                                   : PGS
  282. Codec ID                                 : S_HDMV/PGS
  283. Codec ID/Info                            : Picture based subtitle format used on BDs/HD-DVDs
  284. Duration                                 : 1 h 30 min
  285. Bit rate                                 : 29.5 kb/s
  286. Count of elements                        : 2092
  287. Stream size                              : 19.1 MiB (0%)
  288. Title                                    : Portuguese (Brazilian)
  289. Language                                 : Portuguese
  290. Default                                  : No
  291. Forced                                   : No
  292.  
  293. Text #14
  294. ID                                       : 18
  295. Format                                   : PGS
  296. Codec ID                                 : S_HDMV/PGS
  297. Codec ID/Info                            : Picture based subtitle format used on BDs/HD-DVDs
  298. Duration                                 : 1 h 32 min
  299. Bit rate                                 : 51.4 kb/s
  300. Count of elements                        : 2380
  301. Stream size                              : 34.2 MiB (0%)
  302. Title                                    : English (Commentary)
  303. Language                                 : English
  304. Default                                  : No
  305. Forced                                   : No
  306.  
  307. Text #15
  308. ID                                       : 19
  309. Format                                   : PGS
  310. Codec ID                                 : S_HDMV/PGS
  311. Codec ID/Info                            : Picture based subtitle format used on BDs/HD-DVDs
  312. Duration                                 : 1 h 35 min
  313. Bit rate                                 : 46.1 kb/s
  314. Count of elements                        : 2384
  315. Stream size                              : 31.6 MiB (0%)
  316. Title                                    : Spanish (Commentary)
  317. Language                                 : Spanish
  318. Default                                  : No
  319. Forced                                   : No
  320.  
  321. Text #16
  322. ID                                       : 20
  323. Format                                   : PGS
  324. Codec ID                                 : S_HDMV/PGS
  325. Codec ID/Info                            : Picture based subtitle format used on BDs/HD-DVDs
  326. Duration                                 : 1 h 35 min
  327. Bit rate                                 : 41.9 kb/s
  328. Count of elements                        : 2386
  329. Stream size                              : 28.7 MiB (0%)
  330. Title                                    : French (Commentary)
  331. Language                                 : French
  332. Default                                  : No
  333. Forced                                   : No
  334.  
  335. Text #17
  336. ID                                       : 21
  337. Format                                   : PGS
  338. Codec ID                                 : S_HDMV/PGS
  339. Codec ID/Info                            : Picture based subtitle format used on BDs/HD-DVDs
  340. Duration                                 : 1 h 35 min
  341. Bit rate                                 : 49.3 kb/s
  342. Count of elements                        : 2384
  343. Stream size                              : 33.8 MiB (0%)
  344. Title                                    : German (Commentary)
  345. Language                                 : German
  346. Default                                  : No
  347. Forced                                   : No
  348.  
  349. Text #18
  350. ID                                       : 22
  351. Format                                   : PGS
  352. Codec ID                                 : S_HDMV/PGS
  353. Codec ID/Info                            : Picture based subtitle format used on BDs/HD-DVDs
  354. Duration                                 : 1 h 35 min
  355. Bit rate                                 : 45.8 kb/s
  356. Count of elements                        : 2384
  357. Stream size                              : 31.4 MiB (0%)
  358. Title                                    : Italian (Commentary)
  359. Language                                 : Italian
  360. Default                                  : No
  361. Forced                                   : No
  362.  
  363. Menu
  364. 00:00:00.000                             : en:Daylight Station
  365. 00:05:41.007                             : en:The Lewis and Clark
  366. 00:08:26.965                             : en:I'm Waiting
  367. 00:12:11.981                             : en:A Single Transmission
  368. 00:18:38.951                             : en:The Event Horizon
  369. 00:23:19.732                             : en:A Tomb
  370. 00:29:05.786                             : en:The Heart of the Ship
  371. 00:34:01.081                             : en:The Gateway
  372. 00:39:23.319                             : en:The Dark
  373. 00:45:08.623                             : en:Hallucinations
  374. 00:51:09.608                             : en:Open the Door
  375. 00:58:17.703                             : en:Mistake in the Translation
  376. 01:04:37.957                             : en:Wonderful Things to Show You
  377. 01:09:29.957                             : en:Dr. Weir
  378. 01:15:05.167                             : en:Isn't She Beautiful?
  379. 01:22:20.561                             : en:Let Me Show You
  380. 01:29:34.953                             : en:Rescue
RAW Paste Data
We use cookies for various purposes including analytics. By continuing to use Pastebin, you agree to our use of cookies as described in the Cookies Policy. OK, I Understand
 
Top