SHARE
TWEET

VOCALOUD 01 -Breaking of the Emotion-

rarelyupset Aug 2nd, 2014 328 Never
Not a member of Pastebin yet? Sign Up, it unlocks many cool features!
  1. REM GENRE Vocaloid
  2. REM DATE 2014
  3. REM COMMENT
  4. PERFORMER "Various Artists"
  5. TITLE "VOCALOUD 01 -Breaking of the Emotion-"
  6. FILE "01 - uz - スカイクラッドの観測者.flac" WAVE
  7.   TRACK 01 AUDIO
  8.     TITLE "スカイクラッドの観測者"
  9.     PERFORMER "uz"
  10.     INDEX 01 00:00:00
  11. FILE "02 - やいり - 咆哮≒Emotion.flac" WAVE
  12.   TRACK 02 AUDIO
  13.     TITLE "咆哮≒Emotion"
  14.     PERFORMER "やいり"
  15.     INDEX 01 00:00:00
  16. FILE "03 - やいり - ムーンライト伝説.flac" WAVE
  17.   TRACK 03 AUDIO
  18.     TITLE "ムーンライト伝説"
  19.     PERFORMER "やいり"
  20.     INDEX 01 00:00:00
  21. FILE "04 - ゆよゆっぱ - MY-DESTIИATION.flac" WAVE
  22.   TRACK 04 AUDIO
  23.     TITLE "MY-DESTIИATION"
  24.     PERFORMER "ゆよゆっぱ"
  25.     INDEX 01 00:00:00
  26. FILE "05 - 無力P - アンインストール.flac" WAVE
  27.   TRACK 05 AUDIO
  28.     TITLE "アンインストール"
  29.     PERFORMER "無力P"
  30.     INDEX 01 00:00:00
  31. FILE "06 - 鬱P - 地獄ポップス.flac" WAVE
  32.   TRACK 06 AUDIO
  33.     TITLE "地獄ポップス"
  34.     PERFORMER "鬱P"
  35.     INDEX 01 00:00:00
  36. FILE "07 - ゆよゆっぺ - only my railgun.flac" WAVE
  37.   TRACK 07 AUDIO
  38.     TITLE "only my railgun"
  39.     PERFORMER "ゆよゆっぺ"
  40.     INDEX 01 00:00:00
  41. FILE "08 - 無力P - Regret.flac" WAVE
  42.   TRACK 08 AUDIO
  43.     TITLE "Regret"
  44.     PERFORMER "無力P"
  45.     INDEX 01 00:00:00
  46. FILE "09 - ゆよゆっぱ - 撲殺天使ドクロちゃん.flac" WAVE
  47.   TRACK 09 AUDIO
  48.     TITLE "撲殺天使ドクロちゃん"
  49.     PERFORMER "ゆよゆっぱ"
  50.     INDEX 01 00:00:00
  51. FILE "10 - uz - 665.flac" WAVE
  52.   TRACK 10 AUDIO
  53.     TITLE "665"
  54.     PERFORMER "uz"
  55.     INDEX 01 00:00:00
  56. FILE "11 - 鬱P - 東京テディベア.flac" WAVE
  57.   TRACK 11 AUDIO
  58.     TITLE "東京テディベア"
  59.     PERFORMER "鬱P"
  60.     INDEX 01 00:00:00
  61. FILE "12 - ゆよゆっぺ - 唯心論.flac" WAVE
  62.   TRACK 12 AUDIO
  63.     TITLE "唯心論"
  64.     PERFORMER "ゆよゆっぺ"
  65.     INDEX 01 00:00:00
RAW Paste Data
We use cookies for various purposes including analytics. By continuing to use Pastebin, you agree to our use of cookies as described in the Cookies Policy. OK, I Understand
Top